<?xml version="1.0" standalone="no"?>
<!DOCTYPE svg PUBLIC "-//W3C//DTD SVG 1.1//EN" "http://www.w3.org/Graphics/SVG/1.1/DTD/svg11.dtd" >
<svg xmlns="http://www.w3.org/2000/svg">
<metadata>
This is a custom SVG webfont generated by Font Squirrel.
Copyright   : Copyright c Men Nettelbladt 2006 All rights reserved
Designer    : Men Nettelbladt
Foundry     : Men Nettelbladt
</metadata>
<defs>
<font id="webfontOS7VaPS3" horiz-adv-x="851" >
<font-face units-per-em="2048" ascent="1638" descent="-410" />
<missing-glyph horiz-adv-x="393" />
<glyph unicode=" "  horiz-adv-x="393" />
<glyph unicode="&#x09;" horiz-adv-x="393" />
<glyph unicode="&#xa0;" horiz-adv-x="393" />
<glyph unicode="!" horiz-adv-x="409" d="M205 -41q-49 0 -84 35t-35 84t35 84t84 35t84 -35t35 -84t-35 -84t-84 -35zM106 1204q0 41 29 70t70 29t69.5 -29t28.5 -70v-819q0 -41 -28.5 -69.5t-69.5 -28.5t-70 28.5t-29 69.5v819z" />
<glyph unicode="&#x22;" horiz-adv-x="720" d="M524 1343q41 0 70 -28.5t29 -69.5v-205q0 -41 -29 -69.5t-70 -28.5t-69.5 28.5t-28.5 69.5v205q0 41 28.5 69.5t69.5 28.5zM98 1245q0 41 29 69.5t70 28.5t69.5 -28.5t28.5 -69.5v-205q0 -41 -28.5 -69.5t-69.5 -28.5t-70 28.5t-29 69.5v205z" />
<glyph unicode="#" horiz-adv-x="937" d="M727 741v-141h111q39 0 66.5 -26.5t27.5 -65.5t-27.5 -66.5t-66.5 -27.5h-111v-357q0 -39 -27.5 -66.5t-66.5 -27.5t-65.5 27.5t-26.5 66.5v357h-142v-357q0 -39 -27.5 -66.5t-66.5 -27.5t-65.5 27.5t-26.5 66.5v357h-113q-39 0 -65.5 27.5t-26.5 66.5t26.5 65.5 t65.5 26.5h113v141h-113q-39 0 -65.5 28t-26.5 67t26.5 65.5t65.5 26.5h113v317q0 39 26.5 65.5t65.5 26.5t66.5 -26.5t27.5 -65.5v-317h142v317q0 39 26.5 65.5t65.5 26.5t66.5 -26.5t27.5 -65.5v-317h111q39 0 66.5 -27t27.5 -65q0 -39 -27.5 -67t-66.5 -28h-111zM541 741 h-142v-141h142v141z" />
<glyph unicode="$" d="M621 629q57 -47 88.5 -112.5t33.5 -139.5q0 -76 -30.5 -142.5t-85.5 -113.5q-27 -23 -56.5 -39t-60.5 -27v-80q0 -41 -28.5 -69.5t-69.5 -28.5t-70 28.5t-29 69.5v80q-125 39 -190 152q-20 35 -9 73.5t46 61.5q35 20 73.5 9t59.5 -46q33 -55 94 -65q63 -10 111 30 q49 39 49 105q-2 29 -14.5 56.5t-36.5 45.5l-256 211q-57 45 -88 109.5t-31 136.5q-2 72 27.5 137.5t84.5 112.5q25 23 53.5 38t59.5 25v80q0 41 28.5 69.5t69.5 28.5t70 -28.5t29 -69.5v-82q57 -16 104 -54t76 -91q23 -35 11.5 -74t-46.5 -61q-35 -20 -74 -9t-61 45 q-29 51 -88 62q-59 10 -105 -29q-47 -39 -43 -98q0 -57 45 -96z" />
<glyph unicode="%" horiz-adv-x="1214" d="M895 514q55 0 105.5 -21.5t87 -58.5t58 -87t21.5 -105q0 -57 -21.5 -106.5t-58 -86.5t-87 -58.5t-105.5 -21.5q-57 0 -106.5 21.5t-86 58.5t-58 86t-21.5 107q0 55 21.5 105t58 87t86 58.5t106.5 21.5zM895 145q41 0 68.5 28t27.5 69t-27.5 68.5t-68.5 27.5t-68.5 -27.5 t-27.5 -68.5t27.5 -69t68.5 -28zM594 1061q0 -57 -21.5 -106.5t-58.5 -86.5t-87 -58.5t-105 -21.5q-57 0 -106.5 21.5t-86.5 58.5t-58.5 86.5t-21.5 106.5q0 55 21.5 105.5t58.5 87t86 58t107 21.5q55 0 105 -21.5t87 -58t58.5 -87t21.5 -105.5zM225 1061q0 -41 28 -68.5 t69 -27.5t68.5 27.5t27.5 68.5t-28 68.5t-68 27.5q-41 0 -69 -27.5t-28 -68.5zM938 1333q37 -16 50 -55t-5 -76l-573 -1188q-16 -37 -55.5 -50t-75.5 5q-37 16 -50.5 55t4.5 76l574 1188q16 37 55 50t76 -5z" />
<glyph unicode="&#x26;" horiz-adv-x="1009" d="M705 125q-35 -59 -93.5 -100t-128.5 -58q-70 -16 -138.5 -3t-127.5 54t-97 100.5t-48 131.5q-12 70 5 138.5t60 125.5l150 193l-125 159l-6 8q-47 72 -49.5 156t38.5 158q41 76 116 118t161 37q86 -4 156.5 -50t105.5 -124q37 -78 29 -161.5t-62 -151.5l-116 -149 l139 -183l24 -28l37 63q23 35 62 45t73 -12q35 -23 45.5 -61.5t-10.5 -73.5l-78 -129l146 -191q25 -33 20.5 -72.5t-37.5 -64.5t-73.5 -19.5t-65.5 37.5l-98 129zM412 866l84 109q39 51 12 110q-29 57 -94 62q-29 2 -54.5 -13.5t-42.5 -41.5q-14 -25 -14 -56q0 -29 16 -53z M442 160q61 12 95 67l53 86l-72 93l-106 139l-119 -152q-39 -51 -29 -112t64 -101q53 -36 114 -20z" />
<glyph unicode="'" horiz-adv-x="393" d="M295 1040q0 -41 -28.5 -69.5t-69.5 -28.5t-70 28.5t-29 69.5v205q0 41 29 69.5t70 28.5t69.5 -28.5t28.5 -69.5v-205z" />
<glyph unicode="(" horiz-adv-x="548" d="M518 -45q27 -33 22 -73t-38 -66q-33 -25 -73 -21t-64 37q-139 180 -213 391q-70 207 -70 428t70 428q74 211 213 391q25 31 64.5 36t72.5 -19q33 -27 38 -67t-22 -72q-59 -76 -104 -158t-76 -174q-59 -182 -59 -365q0 -186 59 -364q31 -92 76 -174t104 -158z" />
<glyph unicode=")" horiz-adv-x="550" d="M467 672q0 -217 -72 -428q-70 -209 -211 -391q-25 -33 -64.5 -37t-72.5 20q-33 27 -38 67t20 72q121 154 182 332q59 178 59 365q0 182 -59 364q-61 178 -182 332q-25 33 -20 73t38 66q33 25 73 20t64 -36q141 -182 211 -391q72 -211 72 -428z" />
<glyph unicode="*" d="M520 776v-145q0 -39 -27.5 -66.5t-66.5 -27.5t-65.5 27.5t-26.5 66.5v145l-127 -71q-35 -20 -72 -11.5t-55 43.5q-20 35 -10 72t43 55l127 74l-127 74q-33 18 -43.5 55t10.5 72q18 33 55 43t72 -11l127 -71v145q0 39 26.5 65.5t65.5 26.5t66.5 -26.5t27.5 -65.5v-145 l125 71q35 20 72 10t55 -42q20 -35 10 -72t-43 -55l-127 -74l127 -74q33 -18 43.5 -55t-10.5 -72q-18 -35 -55 -44t-72 12z" />
<glyph unicode="+" d="M672 688q41 0 69.5 -28.5t28.5 -69.5t-28.5 -69.5t-69.5 -28.5h-148v-148q0 -41 -28.5 -69.5t-69.5 -28.5t-69.5 28.5t-28.5 69.5v148h-148q-41 0 -69.5 28.5t-28.5 69.5t28.5 69.5t69.5 28.5h148v148q0 41 28.5 69.5t69.5 28.5t69.5 -28.5t28.5 -69.5v-148h148z" />
<glyph unicode="," horiz-adv-x="393" d="M129 -12q8 4 8 12v8q-29 10 -47 35t-18 55q0 39 26.5 65.5t65.5 26.5h65q39 0 67 -26.5t28 -65.5v-98q0 -61 -34 -111.5t-89 -72.5q-37 -16 -72 -1t-51 50q-16 37 -1 72t52 51z" />
<glyph unicode="-" d="M180 492q-41 0 -69.5 28.5t-28.5 69.5t28.5 69.5t69.5 28.5h492q41 0 69.5 -28.5t28.5 -69.5t-28.5 -69.5t-69.5 -28.5h-492z" />
<glyph unicode="." horiz-adv-x="393" d="M78 78q0 49 34.5 84t84.5 35q49 0 83.5 -35t34.5 -84t-34.5 -84t-83.5 -35t-84 35t-35 84z" />
<glyph unicode="/" d="M707 1419q39 -14 56 -51t1 -74l-492 -1351q-14 -39 -50 -56.5t-75 -3.5t-56 50t-3 75l492 1352q14 39 51 56t76 3z" />
<glyph unicode="0" d="M426 -41q-72 0 -134.5 26.5t-109.5 73.5t-73.5 109.5t-26.5 134.5v696q0 72 26.5 134.5t73.5 109.5t109.5 73.5t134.5 26.5q70 0 133.5 -26.5t109.5 -73.5t73.5 -109.5t27.5 -134.5v-696q0 -72 -27.5 -134.5t-73.5 -109.5t-109.5 -73.5t-133.5 -26.5zM426 1147 q-61 0 -104 -43t-43 -105v-696q0 -61 43 -104t104 -43q59 0 103 43t44 104v696q0 61 -44 104.5t-103 43.5z" />
<glyph unicode="1" d="M299 930q-29 -29 -70 -29t-69 29q-29 29 -29 69q0 41 29 70l246 246q47 47 106 20q29 -10 45 -35.5t16 -54.5v-1188q0 -41 -28.5 -69.5t-69.5 -28.5t-69.5 28.5t-28.5 69.5v951q-14 -12 -28 -27l-23 -25q-13 -14 -27 -26z" />
<glyph unicode="2" d="M139 1036q-35 23 -46 62t9 73q70 121 207 160q66 18 132.5 10t125.5 -41q123 -66 164 -202q18 -66 12 -132.5t-36 -125.5l-140 -265l-58 -112l-59 -112l-56 -102l-44 -85h297q41 0 69.5 -29t28.5 -69q0 -41 -28.5 -70t-69.5 -29h-459q-53 0 -84 47q-27 45 -4 97l432 819 q27 55 11 112q-18 57 -70 86q-53 29 -113 13q-55 -16 -88 -68q-20 -35 -59 -46t-74 9z" />
<glyph unicode="3" d="M412 160q47 14 77.5 53t30.5 90v123q0 61 -43 104t-104 43q-41 0 -70 29t-29 70t29 69.5t70 28.5q61 0 104 43t43 105v81q0 49 -30.5 89t-77.5 53q-49 14 -95.5 -5.5t-70.5 -62.5q-23 -35 -62 -46t-73 9q-35 23 -46.5 62t9.5 73q29 51 71.5 88t94 58.5t109 25 t112.5 -11.5q57 -14 104 -46t81 -76t52.5 -98t18.5 -112v-81q0 -72 -27.5 -135.5t-77.5 -110.5q49 -47 77 -110.5t28 -135.5v-123q0 -59 -18.5 -112.5t-52.5 -97.5t-81 -75.5t-104 -46.5q-55 -16 -112.5 -12t-109 25.5t-94.5 58.5t-71 88q-20 35 -9 74t46 61q35 20 73.5 9 t61.5 -46q25 -43 71 -62t95 -7z" />
<glyph unicode="4" d="M152 246q-51 0 -80 41q-29 37 -15 88l287 901q12 39 48 57.5t77 5.5q31 -10 49.5 -36.5t18.5 -57.5q0 -10 -5 -31l-100 -315l-41 -130l-41 -127l-37 -113l-26 -87h176v189q0 41 28.5 69.5t69.5 28.5t69.5 -28.5t28.5 -69.5v-189h66q41 0 69.5 -28.5t28.5 -69.5 t-28.5 -69.5t-69.5 -28.5h-66v-189q0 -41 -28.5 -69.5t-69.5 -28.5t-69.5 28.5t-28.5 69.5v189h-311z" />
<glyph unicode="5" d="M186 557q-33 8 -53 33.5t-20 60.5v586q0 41 28.5 69.5t69.5 28.5h426q41 0 69.5 -28.5t28.5 -69.5t-28.5 -69.5t-69.5 -28.5h-328v-287q100 35 205 8q55 -14 102.5 -46t81 -76t52 -98t18.5 -112v-225q0 -59 -18.5 -112.5t-52 -97.5t-81 -75.5t-102.5 -46.5 q-115 -31 -221.5 13.5t-165.5 146.5q-23 35 -11.5 74t46.5 61q35 20 73.5 9t61.5 -46q25 -43 71 -62.5t95 -6.5q47 14 77.5 53t30.5 90v225q0 49 -30.5 89t-77.5 53q-49 14 -95 -5.5t-71 -62.5q-16 -29 -47 -42t-64 -3z" />
<glyph unicode="6" d="M444 -41q-72 0 -134 26.5t-108 73.5t-74 109.5t-28 134.5v696q0 57 18.5 111.5t52.5 98.5t81 76t104 46q55 14 112.5 11t109 -24.5t94.5 -58t71 -88.5q20 -35 9 -73.5t-45 -61.5q-35 -20 -74 -9t-60 46q-27 43 -72.5 62.5t-92.5 5.5q-49 -12 -80 -52t-31 -90v-180 q72 33 147 33q72 0 134.5 -26.5t109.5 -73.5t73.5 -109.5t26.5 -134.5v-205q0 -72 -26.5 -134.5t-73.5 -109.5t-109.5 -73.5t-134.5 -26.5zM444 655q-61 0 -104 -43t-43 -104v-205q0 -61 43 -104t104 -43t104.5 43t43.5 104v205q0 61 -43.5 104t-104.5 43z" />
<glyph unicode="7" d="M174 975q-41 0 -69.5 28.5t-28.5 69.5v164q0 41 28.5 69.5t69.5 28.5h492q47 0 77 -37q29 -37 19 -84l-287 -1179q-10 -41 -44 -62.5t-75 -11.5q-35 10 -55 36t-20 60q0 6 1 11.5t3 11.5l110 455l43 182l42 173l35 146q15 66 26 103h-269v-66q0 -41 -28.5 -69.5 t-69.5 -28.5z" />
<glyph unicode="8" d="M426 -41q-72 0 -134.5 26.5t-108.5 73.5t-73.5 109.5t-27.5 134.5v123q0 72 28.5 135.5t75.5 110.5q-47 47 -75.5 110.5t-28.5 135.5v81q0 72 27.5 134.5t73.5 109.5t108.5 73.5t134.5 26.5t134.5 -26.5t109.5 -73.5t73.5 -109.5t26.5 -134.5v-81q0 -72 -27.5 -135.5 t-74.5 -110.5q47 -47 74.5 -110.5t27.5 -135.5v-123q0 -72 -26.5 -134.5t-73.5 -109.5t-109.5 -73.5t-134.5 -26.5zM279 918q0 -61 44 -104.5t103 -43.5q61 0 104 43t43 105v81q0 61 -43 104.5t-104 43.5q-59 0 -103 -43t-44 -105v-81zM573 426q0 61 -43 104t-104 43 q-59 0 -103 -43t-44 -104v-123q0 -61 44 -104t103 -43q61 0 104 43t43 104v123z" />
<glyph unicode="9" d="M408 451q-72 0 -134.5 26.5t-108.5 73.5t-74 109.5t-28 134.5v204q0 72 28 134.5t74 109.5t108.5 73.5t134.5 26.5t134 -26.5t109 -73.5t74 -109.5t27 -134.5v-696q0 -59 -18.5 -112.5t-52.5 -97.5t-81 -75.5t-102 -46.5q-55 -16 -112.5 -12t-109 25.5t-94.5 58.5t-71 88 q-20 35 -10 74t44 61q35 20 75 9t61 -46q25 -43 71.5 -62.5t93.5 -6.5q47 14 78 53t31 90v180q-69 -32 -147 -32zM408 1147q-59 0 -103.5 -43t-44.5 -105v-204q0 -61 44 -104.5t104 -43.5q61 0 104 43t43 105v204q0 61 -43 104.5t-104 43.5z" />
<glyph unicode=":" horiz-adv-x="393" d="M197 -41q-49 0 -84 35t-35 84t34.5 84t84.5 35q49 0 83.5 -35t34.5 -84t-34.5 -84t-83.5 -35zM197 737q-49 0 -84 35t-35 84t34.5 84t84.5 35q49 0 83.5 -35t34.5 -84t-34.5 -84t-83.5 -35z" />
<glyph unicode=";" horiz-adv-x="393" d="M229 190q39 0 67 -26.5t28 -65.5v-98q0 -61 -34 -111.5t-89 -72.5q-37 -16 -72 -1t-51 50q-16 37 -1 71.5t52 51.5q8 4 8 12v8q-29 10 -47 35t-18 55q0 39 26.5 65.5t65.5 26.5h65zM78 856q0 49 34.5 84t84.5 35q49 0 83.5 -35t34.5 -84t-34.5 -84t-83.5 -35t-84 35 t-35 84z" />
<glyph unicode="&#x3c;" d="M754 999q0 -45 -37 -75l-154 -129l-132 -111l-114 -94l114 -95l132 -110l154 -129q37 -31 37 -76q0 -35 -23 -63q-27 -31 -67.5 -35t-71.5 22l-492 410q-35 29 -34 76q0 47 34 76l492 409q31 27 72 23t67 -35q23 -29 23 -64z" />
<glyph unicode="=" d="M672 524q41 0 69.5 -28.5t28.5 -69.5t-28.5 -69.5t-69.5 -28.5h-492q-41 0 -69.5 28.5t-28.5 69.5t28.5 69.5t69.5 28.5h492zM672 852q41 0 69.5 -28.5t28.5 -69.5t-28.5 -70t-69.5 -29h-492q-41 0 -69.5 29t-28.5 70t28.5 69.5t69.5 28.5h492z" />
<glyph unicode="&#x3e;" d="M98 180q0 45 35 76l156 129l246 205l-114 94l-132 111l-156 129q-35 31 -35 75q0 35 23 64q27 31 66.5 35t72.5 -23l492 -409q35 -29 34 -76q0 -47 -34 -76l-492 -410q-33 -27 -73 -22.5t-66 35.5q-23 28 -23 63z" />
<glyph unicode="?" horiz-adv-x="731" d="M307 1145q-31 -8 -56.5 -25.5t-41.5 -46.5q-20 -35 -60 -46t-75 9q-35 23 -45.5 62t10.5 73q37 66 97.5 108t131.5 58q74 14 145.5 -2t131.5 -61q59 -47 95 -111.5t40 -138.5t-20.5 -143.5t-77.5 -122.5l-105 -105q-43 -47 -43 -104v-164q0 -41 -28.5 -69.5t-69.5 -28.5 t-69.5 28.5t-28.5 69.5v164q0 68 26.5 130t73.5 112l104 104q23 23 34 52.5t7 62.5q-4 66 -57 106q-53 41 -119 29zM455 78q0 -49 -35 -84t-84 -35t-84 35t-35 84t35 84t84 35t84 -35t35 -84z" />
<glyph unicode="@" horiz-adv-x="1564" d="M1268 1135q98 -98 149 -222.5t51 -261.5v-381q0 -61 -23.5 -115.5t-63.5 -94.5t-94 -63.5t-116 -23.5h-409q-61 0 -115.5 23.5t-94.5 63.5t-63.5 94.5t-23.5 115.5t23.5 115.5t63.5 94.5t94 63.5t116 23.5h112v109q0 33 -18 59.5t-51 40.5q-31 12 -64.5 5t-58.5 -29 q-29 -29 -65.5 -28t-65.5 28q-27 29 -27 65q0 39 29 66q63 61 150.5 79.5t170.5 -16.5q41 -16 75 -42.5t59 -63.5q27 -37 39 -79t12 -85v-518h112q47 0 80 32.5t33 79.5v381q0 100 -37 191.5t-108 163.5q-72 72 -163 109.5t-194 37.5q-100 0 -191 -38t-163 -109 q-72 -72 -109.5 -163t-37.5 -192v-368q0 -102 37.5 -193.5t109.5 -163.5t163 -108.5t191 -36.5h226q39 0 65.5 -27.5t26.5 -64.5q0 -39 -26.5 -65.5t-65.5 -26.5h-226q-137 0 -262 51t-223 149t-149.5 222t-51.5 264v368q0 137 51.5 261t149.5 223q98 98 223 150t262 52 q139 0 263.5 -52t222.5 -150zM762 383q-47 0 -80 -33t-33 -80t33 -79.5t80 -32.5h112v225h-112z" />
<glyph unicode="A" horiz-adv-x="884" d="M864 84q4 -14 4 -28q0 -25 -13 -48q-19 -35 -58 -45q-14 -4 -28 -3q-25 0 -48 12q-35 19 -45 59q-8 25 -17 59l-19 69l-24 87h-348q-14 -47 -24.5 -87l-18.5 -69q-8 -35 -16 -59q-10 -39 -45 -59q-23 -13 -48 -12q-13 0 -28 3q-39 10 -58 45q-13 23 -13 48q0 13 3 28 l328 1188q8 33 34 52t60 19q35 0 60.5 -19t34.5 -52zM561 442l-59 220l-60 212l-59 -212l-59 -220h237z" />
<glyph unicode="B" horiz-adv-x="876" d="M795 918q0 -72 -29 -135.5t-76 -110.5q47 -47 76 -110.5t29 -135.5v-115q0 -72 -28 -134t-74 -109.5t-109.5 -74t-132.5 -26.5h-246q-41 0 -70 29t-29 70v1171q0 41 29 69.5t70 28.5h246q70 0 133 -26.5t109 -73.5t74 -109.5t28 -134.5v-73zM598 426q0 61 -43 104 t-104 43h-148v-409h148q61 0 104 43t43 104v115zM451 770q61 0 104 43t43 105v73q0 61 -43 104.5t-104 43.5h-148v-369h148z" />
<glyph unicode="C" horiz-adv-x="788" d="M336 -29q-55 14 -102.5 46t-81 76t-52 97.5t-18.5 112.5v696q0 57 18.5 111.5t52 98.5t81 76t102.5 46q47 13 93 13q66 0 128 -26q106 -44 166 -147q15 -23 15 -48q0 -13 -4 -25q-11 -39 -46 -62q-22 -13 -47 -13q-13 0 -27 4q-39 11 -61 46q-25 43 -71 63q-27 11 -54 11 q-20 0 -41 -6q-47 -12 -77.5 -52t-30.5 -90v-696q0 -51 30.5 -90t77.5 -53q19 -5 38 -5q29 0 57 12q46 19 71 62q23 35 61 46q14 4 27 4q24 0 47 -13q35 -23 46 -61q4 -13 4 -26q0 -25 -15 -48q-59 -102 -166 -146q-63 -26 -128 -26q-46 -1 -93 12z" />
<glyph unicode="D" horiz-adv-x="876" d="M451 1335q72 0 134 -26.5t109 -73.5t74 -109.5t27 -134.5v-680q0 -72 -27 -134t-74 -109.5t-109.5 -74t-133.5 -26.5h-246q-41 0 -70 29t-29 70v1171q0 41 29 69.5t70 28.5h246zM598 991q0 61 -43 104.5t-104 43.5h-148v-975h148q61 0 104 43t43 104v680z" />
<glyph unicode="E" horiz-adv-x="753" d="M106 1237q0 41 29 69.5t70 28.5h409q41 0 70 -28.5t29 -69.5t-29 -69.5t-70 -28.5h-311v-369h270q41 0 70 -28.5t29 -69.5t-29 -70t-70 -29h-270v-409h311q41 0 70 -29t29 -69q0 -41 -29 -70t-70 -29h-409q-41 0 -70 29t-29 70v1171z" />
<glyph unicode="F" horiz-adv-x="737" d="M205 -33q-41 0 -70 29t-29 70v1171q0 41 29 69.5t70 28.5h409q41 0 70 -28.5t29 -69.5t-29 -69.5t-70 -28.5h-311v-369h270q41 0 70 -28.5t29 -69.5t-29 -70t-70 -29h-270v-507q0 -41 -28.5 -70t-69.5 -29z" />
<glyph unicode="G" horiz-adv-x="843" d="M672 729q41 0 69.5 -28.5t28.5 -69.5v-328q0 -72 -26.5 -134.5t-73.5 -109.5t-109.5 -73.5t-134.5 -26.5t-134.5 26.5t-108.5 73.5t-73.5 109.5t-27.5 134.5v696q0 57 18.5 111.5t52 98.5t81 76t104.5 46q46 12 92 12q10 0 21 -1q57 -3 108 -24.5t94 -58t72 -88.5 q13 -22 13 -46q0 -13 -4 -27q-11 -39 -46 -62q-22 -13 -47 -13q-13 0 -27 4q-39 11 -59 46q-27 43 -73 63q-27 11 -53 11q-20 0 -40 -6q-49 -12 -79.5 -52t-30.5 -90v-696q0 -61 44 -104t103 -43q61 0 104 43t43 104v229h-106q-41 0 -69.5 29t-28.5 70t28.5 69.5t69.5 28.5 h205z" />
<glyph unicode="H" horiz-adv-x="901" d="M598 1245q0 41 28.5 69.5t69.5 28.5t70 -28.5t29 -69.5v-1188q0 -41 -29 -69.5t-70 -28.5t-69.5 28.5t-28.5 69.5v516h-295v-516q0 -41 -28.5 -69.5t-69.5 -28.5t-70 28.5t-29 69.5v1188q0 41 29 69.5t70 28.5t69.5 -28.5t28.5 -69.5v-475h295v475z" />
<glyph unicode="I" horiz-adv-x="409" d="M205 -41q-41 0 -70 28.5t-29 69.5v1188q0 41 29 69.5t70 28.5t69.5 -28.5t28.5 -69.5v-1188q0 -41 -28.5 -69.5t-69.5 -28.5z" />
<glyph unicode="J" horiz-adv-x="681" d="M584 303q0 -92 -47.5 -172t-124.5 -127q-80 -45 -174 -45q-92 0 -170 45q-35 23 -46 62q-4 14 -4 27q0 24 13 46q20 35 60 46q14 4 28 4q25 0 47 -13q35 -20 74 -20t73 20q35 18 54.5 52t19.5 75v942q0 41 28.5 69.5t69.5 28.5t70 -28.5t29 -69.5v-942z" />
<glyph unicode="K" horiz-adv-x="862" d="M827 100q9 -20 9 -41q0 -17 -6 -34q-13 -39 -50 -56q-21 -11 -43 -10q-16 0 -31 5q-38 13 -57 50l-268 559l-78 -106v-410q0 -41 -28.5 -69.5t-69.5 -28.5t-70 28.5t-29 69.5v1188q0 41 29 69.5t70 28.5t69.5 -28.5t28.5 -69.5v-440l354 498q25 33 65 38q9 1 17 2 q30 0 56 -18q35 -23 41 -62q1 -8 1 -16q0 -31 -20 -59l-307 -432z" />
<glyph unicode="L" horiz-adv-x="712" d="M205 -33q-41 0 -70 29t-29 70v1179q0 41 29 69.5t70 28.5t69.5 -28.5t28.5 -69.5v-1081h311q41 0 70 -29t29 -69q0 -41 -29 -70t-70 -29h-409z" />
<glyph unicode="M" horiz-adv-x="1064" d="M205 -41q-41 0 -70 28.5t-29 69.5v1188q0 35 20.5 61.5t55.5 34.5q12 3 24 3q22 0 42 -10q31 -15 45 -48l84 -178q35 -78 78 -165l77 -163l77 163l77 165l84 178q16 33 46 48q19 10 41 10q11 0 24 -3q35 -8 56 -34.5t21 -61.5v-1188q0 -41 -28.5 -69.5t-69.5 -28.5 t-69.5 28.5t-28.5 69.5v748l-51 -109l-45 -94l-45 -94q-12 -27 -36 -42t-53 -15q-63 0 -90 57l-45 94l-45 94l-49 109v-748q0 -41 -28.5 -69.5t-69.5 -28.5z" />
<glyph unicode="N" horiz-adv-x="983" d="M801 -39q-12 -3 -24 -3q-22 0 -42 10q-31 15 -45 46l-129 269l-126 258l-132 274v-758q0 -41 -28.5 -69.5t-69.5 -28.5t-70 28.5t-29 69.5v1188q0 35 20.5 61.5t55.5 34.5q12 3 24 3q22 0 41 -10q30 -15 46 -46l129 -268l125 -258l133 -275v758q0 41 28.5 69.5t69.5 28.5 t70 -28.5t29 -69.5v-1188q0 -35 -21.5 -61.5t-54.5 -34.5z" />
<glyph unicode="O" d="M426 -41q-72 0 -134.5 26.5t-109.5 73.5t-73.5 109.5t-26.5 134.5v696q0 72 26.5 134.5t73.5 109.5t109.5 73.5t134.5 26.5t134.5 -26.5t109.5 -73.5t73.5 -109.5t26.5 -134.5v-696q0 -72 -26.5 -134.5t-73.5 -109.5t-109.5 -73.5t-134.5 -26.5zM426 1147q-61 0 -104 -43 t-43 -105v-696q0 -61 43 -104t104 -43t104 43t43 104v696q0 61 -43 104.5t-104 43.5z" />
<glyph unicode="P" horiz-adv-x="819" d="M106 1237q0 41 29 69.5t70 28.5h246q72 0 134 -26.5t109 -73.5t74 -109.5t27 -134.5v-114q0 -72 -27 -134.5t-74 -109.5t-109.5 -74t-133.5 -27h-148v-475q0 -41 -28.5 -69.5t-69.5 -28.5t-70 28.5t-29 69.5v1180zM598 991q0 61 -43 104.5t-104 43.5h-148v-410h148 q61 0 104 43t43 105v114z" />
<glyph unicode="Q" d="M770 303q0 -70 -24.5 -129t-69.5 -106l82 -142q13 -22 13 -46q0 -13 -4 -27q-11 -39 -46 -60q-23 -15 -48 -15q-13 0 -26 4q-39 11 -59 46l-82 141q-41 -10 -80 -10q-72 0 -134.5 26.5t-108.5 73.5t-73.5 109.5t-27.5 134.5v696q0 72 27.5 134.5t73.5 109.5t108.5 73.5 t134.5 26.5t134.5 -26.5t109.5 -73.5t73.5 -109.5t26.5 -134.5v-696zM279 303q0 -61 43 -104t104 -43t104 43t43 104v696q0 61 -43 104.5t-104 43.5t-104 -43t-43 -105v-696z" />
<glyph unicode="R" d="M795 877q0 -100 -50.5 -181.5t-134.5 -124.5l178 -479q8 -19 8 -37q0 -20 -9 -39q-17 -37 -56 -51q-18 -7 -36 -7q-20 0 -39 9q-36 16 -52 56l-190 509h-111v-475q0 -41 -28.5 -69.5t-69.5 -28.5t-70 28.5t-29 69.5v1180q0 41 29 69.5t70 28.5h246q72 0 134 -26.5 t109 -73.5t74 -109.5t27 -134.5v-114zM303 729h148q61 0 104 43t43 105v114q0 61 -43 104.5t-104 43.5h-148v-410z" />
<glyph unicode="S" horiz-adv-x="782" d="M473 188q29 20 43 49t19 64q1 8 0 15q0 60 -43 108l-328 336q-53 53 -78 123q-20 56 -20 114q0 15 2 29q6 74 40.5 138.5t94.5 109.5q59 45 132 61q39 9 77 9q34 0 67 -7q72 -16 132.5 -58t97.5 -108q13 -22 13 -46q0 -13 -4 -27q-11 -39 -46 -62q-22 -13 -47 -13 q-13 0 -27 4q-39 11 -59 46q-35 55 -99 72q-15 3 -29 3q-48 0 -89 -32q-53 -39 -58 -106q-1 -8 -1 -15q0 -56 42 -98l326 -336q53 -55 80 -127q22 -58 21 -119q0 -14 -1 -28q-6 -78 -43 -143.5t-96 -112.5q-61 -47 -135 -64q-39 -9 -80 -9q-35 0 -70 7q-76 16 -137 60.5 t-98 109.5q-15 23 -15 49q0 13 3 26q11 40 46 60q22 13 47 14q13 0 27 -4q39 -11 62 -47q35 -59 104 -75q16 -3 31 -3q53 0 96 33z" />
<glyph unicode="T" horiz-adv-x="778" d="M655 1335q41 0 70 -28.5t29 -69.5t-29 -69.5t-70 -28.5h-168v-1082q0 -41 -28.5 -69.5t-69.5 -28.5t-69.5 28.5t-28.5 69.5v1082h-168q-41 0 -69.5 28.5t-28.5 69.5t28.5 69.5t69.5 28.5h532z" />
<glyph unicode="U" horiz-adv-x="868" d="M287 303q0 -61 43 -104t104 -43q59 0 103.5 43t44.5 104v942q0 41 28.5 69.5t69.5 28.5t69.5 -28.5t28.5 -69.5v-942q0 -72 -27.5 -134.5t-73.5 -109.5t-109.5 -73.5t-133.5 -26.5q-72 0 -134 26.5t-109.5 73.5t-74 109.5t-26.5 134.5v942q0 41 28.5 69.5t69.5 28.5 t70 -28.5t29 -69.5v-942z" />
<glyph unicode="V" horiz-adv-x="917" d="M37 1219q-4 14 -4 27q0 25 13 48q19 35 60 45q13 4 27 4q25 0 48 -13q36 -19 46 -58l80 -293l76 -274l78 -279l76 279l75 274l80 293q10 39 46 58q23 13 49 13q13 0 26 -4q41 -10 60 -45q13 -23 13 -48q0 -13 -3 -27l-328 -1188q-10 -33 -35.5 -52.5t-58.5 -19.5 q-35 0 -60.5 19.5t-35.5 52.5z" />
<glyph unicode="W" horiz-adv-x="1429" d="M117 1341q13 3 25 4q26 0 49 -15q34 -22 45 -62l63 -264l62 -256l67 -271l65 271l62 256l63 264q8 35 35 55t62 20t60.5 -20t33.5 -55l63 -264l63 -256l66 -271l65 271l62 256l64 264q10 41 44 62q23 15 49 15q12 0 26 -4q41 -10 61 -45q14 -23 14 -48q0 -13 -4 -25 l-286 -1188q-8 -35 -34 -55.5t-61 -20.5t-61.5 20.5t-34.5 55.5l-63 264l-63 255l-64 271l-67 -271l-62 -255l-64 -264q-8 -35 -33.5 -55.5t-60.5 -20.5t-61.5 20.5t-34.5 55.5l-287 1188q-3 13 -3 24q0 25 14 49q22 35 61 45z" />
<glyph unicode="X" horiz-adv-x="864" d="M80 -31q-35 18 -48 58q-6 16 -6 32q0 22 11 41l285 572l-265 528q-11 21 -10 44q0 16 5 32q13 39 48 57q21 11 44 11q16 0 32 -6q39 -13 57 -50l199 -397l199 397q18 37 57 50q16 6 32 6q22 0 42 -11q37 -18 50 -57q6 -16 6 -32q0 -22 -11 -44l-264 -528l284 -572 q11 -20 11 -41q0 -16 -5 -32q-13 -39 -51 -58q-20 -11 -41 -10q-16 0 -32 5q-39 13 -58 48l-219 441l-219 -441q-18 -35 -57 -48q-16 -6 -33 -5q-22 -1 -43 10z" />
<glyph unicode="Y" horiz-adv-x="823" d="M412 -41q-41 0 -70 28.5t-29 69.5v592l-276 551q-11 21 -11 44q0 16 6 32q13 39 50 57q20 11 42 11q16 0 32 -6q39 -13 57 -50l68 -135l63 -129l68 -133l66 133l65 129l67 135q18 37 58 50q16 6 32 6q22 0 41 -11q37 -18 51 -57q6 -16 5 -32q0 -22 -11 -44l-276 -551 v-592q0 -41 -28.5 -69.5t-69.5 -28.5z" />
<glyph unicode="Z" horiz-adv-x="786" d="M49 1237q0 41 28.5 69.5t69.5 28.5h492q51 0 82 -43q16 -27 16 -55q0 -23 -8 -39l-184 -438l-74 -175l-71 -169l-61 -147l-44 -105h344q41 0 69.5 -29t28.5 -69q0 -41 -28.5 -70t-69.5 -29h-492q-51 0 -81 43q-16 27 -17 56q0 23 8 38l183 437l73 176l71 170l62 145 l46 107h-345q-41 0 -69.5 28.5t-28.5 69.5z" />
<glyph unicode="[" horiz-adv-x="524" d="M205 -197q-41 0 -70 29t-29 70v1499q0 41 29 69.5t70 28.5h205q41 0 69.5 -28.5t28.5 -69.5t-28.5 -69.5t-69.5 -28.5h-107v-1303h107q41 0 69.5 -28.5t28.5 -69.5t-28.5 -70t-69.5 -29h-205z" />
<glyph unicode="\" d="M764 8q16 -39 -1.5 -74.5t-55.5 -50.5q-39 -14 -76 3.5t-51 56.5l-492 1351q-14 37 3.5 74t55.5 51q39 14 75 -3t50 -56z" />
<glyph unicode="]" horiz-adv-x="524" d="M319 1499q41 0 70 -28.5t29 -69.5v-1499q0 -41 -29 -70t-70 -29h-204q-41 0 -70 29t-29 70t29 69.5t70 28.5h106v1303h-106q-41 0 -70 28.5t-29 69.5t29 69.5t70 28.5h204z" />
<glyph unicode="^" horiz-adv-x="1024" d="M125 803q-31 27 -34 67.5t24 71.5l323 369q29 33 74 32q45 0 74 -32l323 -369q27 -31 24 -72t-34 -67q-31 -29 -71 -26t-68 34l-90 104l-82 94l-76 87l-77 -87l-81 -94l-90 -104q-29 -31 -68.5 -34t-70.5 26z" />
<glyph unicode="_" horiz-adv-x="1024" d="M1024 -131q41 0 69.5 -28.5t28.5 -69.5t-28.5 -70t-69.5 -29h-1024q-41 0 -69.5 29t-28.5 70t28.5 69.5t69.5 28.5h1024z" />
<glyph unicode="`" horiz-adv-x="1024" d="M344 1346q25 27 60.5 28.5t64.5 -22.5l205 -185q27 -25 29 -60.5t-23 -64.5q-25 -27 -60.5 -28.5t-62.5 22.5l-205 185q-29 25 -30 60.5t22 64.5z" />
<glyph unicode="a" horiz-adv-x="720" d="M440 567v109q0 33 -18.5 60.5t-48.5 39.5q-20 8 -42 8q-11 0 -22 -2q-33 -6 -55 -30q-27 -27 -66 -27q-37 0 -63 27q-29 29 -29 65q0 37 29 66q63 63 149 81q29 6 57 5q56 0 111 -23q84 -35 133.5 -107.5t49.5 -162.5v-610q0 -39 -27 -66t-66 -27h-204q-61 0 -115.5 23.5 t-94.5 63.5t-63.5 94.5t-23.5 115.5t23.5 115.5t63.5 94.5t94 63.5t116 23.5h112zM328 383q-47 0 -80 -33t-33 -80t33 -79.5t80 -32.5h112v225h-112z" />
<glyph unicode="b" horiz-adv-x="794" d="M205 -27q-39 0 -65.5 27t-26.5 66v1220q0 39 26.5 65.5t65.5 26.5t65.5 -26.5t26.5 -65.5v-325h113q61 0 115.5 -24t94 -63.5t63.5 -94t24 -115.5v-394q0 -61 -24 -115.5t-63.5 -94.5t-94 -63.5t-115.5 -23.5h-205zM297 776v-618h113q47 0 79.5 32.5t32.5 79.5v394 q0 47 -32.5 79.5t-79.5 32.5h-113z" />
<glyph unicode="c" horiz-adv-x="671" d="M270 -12q-84 35 -133 108.5t-49 165.5v410q0 92 49 165.5t133 108.5q57 23 115 23q29 0 58 -5q87 -17 151 -83q29 -27 29 -66q0 -37 -29 -63q-27 -29 -66 -29q-37 0 -63 29q-25 25 -58 30q-11 2 -23 2q-22 0 -42 -8q-33 -14 -51.5 -41.5t-18.5 -62.5v-410 q0 -35 18.5 -62.5t51.5 -41.5q20 -8 42 -8q11 0 23 2q34 6 58 30q27 29 63 29q39 0 66 -29q29 -29 29 -65q0 -37 -29 -66q-63 -63 -151 -81q-29 -6 -58 -5q-58 0 -115 23z" />
<glyph unicode="d" horiz-adv-x="794" d="M385 -27q-61 0 -115.5 23.5t-94.5 63.5t-63.5 94.5t-23.5 115.5v394q0 61 23.5 115.5t63.5 94t94.5 63.5t115.5 24h113v325q0 39 26.5 65.5t65.5 26.5t65.5 -26.5t26.5 -65.5v-1220q0 -39 -26.5 -66t-65.5 -27h-205zM385 776q-47 0 -80 -32.5t-33 -79.5v-394 q0 -47 33 -79.5t80 -32.5h113v618h-113z" />
<glyph unicode="e" horiz-adv-x="753" d="M272 -12q-86 35 -135 108.5t-49 165.5v410q0 61 23.5 115.5t63.5 94.5t94.5 63.5t115.5 23.5t115.5 -23.5t94.5 -63.5t63.5 -94.5t23.5 -115.5v-205q0 -39 -26.5 -65.5t-65.5 -26.5h-318v-113q0 -35 18.5 -62.5t51.5 -41.5q22 -8 44 -8l22 2q33 6 57 30q27 29 63 29 q39 0 68 -29q27 -29 27 -65q0 -37 -27 -66q-66 -63 -153 -81q-29 -6 -57 -5q-58 0 -114 23zM385 784q-47 0 -80 -32.5t-33 -79.5v-113h226v113q0 47 -33 79.5t-80 32.5z" />
<glyph unicode="f" horiz-adv-x="606" d="M115 776q-39 0 -65.5 26.5t-26.5 65.5t26.5 66t65.5 27h71v120q0 61 23.5 115.5t63.5 94.5t94.5 63.5t115.5 23.5q39 0 65.5 -26.5t26.5 -65.5t-26.5 -65.5t-65.5 -26.5q-47 0 -79.5 -33t-32.5 -80v-120h112q39 0 65.5 -27t26.5 -66t-26.5 -65.5t-65.5 -26.5h-112v-719 q0 -39 -27 -65.5t-65 -26.5q-39 0 -66 26.5t-27 65.5v719h-71z" />
<glyph unicode="g" horiz-adv-x="786" d="M385 -27q-61 0 -115.5 23.5t-94.5 63.5t-63.5 94.5t-23.5 115.5v394q0 61 23.5 115.5t63.5 94t94.5 63.5t115.5 24h205q39 0 65.5 -27t26.5 -66v-1015q0 -92 -49 -166t-133 -109q-57 -23 -115 -23q-29 0 -58 6q-87 17 -151 81q-29 29 -29 65q0 37 29 66q27 29 64 28 q39 0 65 -28q25 -25 59 -31q11 -2 22 -2q22 0 42 8q33 14 51.5 42t18.5 63v120h-113zM385 776q-47 0 -80 -32.5t-33 -79.5v-394q0 -47 33 -79.5t80 -32.5h113v618h-113z" />
<glyph unicode="h" horiz-adv-x="802" d="M205 -35q-39 0 -65.5 26.5t-26.5 65.5v1229q0 39 26.5 65.5t65.5 26.5t65.5 -26.5t26.5 -65.5v-325h113q61 0 115.5 -24t94 -63.5t63.5 -94t24 -115.5v-607q0 -39 -27 -65.5t-66 -26.5t-65.5 26.5t-26.5 65.5v607q0 47 -32.5 79.5t-79.5 32.5h-113v-719 q0 -39 -26.5 -65.5t-65.5 -26.5z" />
<glyph unicode="i" horiz-adv-x="409" d="M205 1071q-47 0 -80 33t-33 80t33 79.5t80 32.5t79.5 -32.5t32.5 -79.5t-32.5 -80t-79.5 -33zM297 57q0 -39 -26.5 -65.5t-65.5 -26.5t-65.5 26.5t-26.5 65.5v820q0 39 26.5 65.5t65.5 26.5t65.5 -27t26.5 -65v-820z" />
<glyph unicode="j" horiz-adv-x="425" d="M221 1071q-47 0 -79.5 33t-32.5 80t32.5 79.5t79.5 32.5t80 -32.5t33 -79.5t-33 -80t-80 -33zM16 -444q-39 0 -65.5 26.5t-26.5 65.5t26.5 65.5t65.5 26.5q47 0 80 32.5t33 80.5v1024q0 39 26.5 65.5t65.5 26.5t65.5 -27t26.5 -65v-1024q0 -61 -23.5 -115.5t-63.5 -94.5 t-94.5 -63.5t-115.5 -23.5z" />
<glyph unicode="k" horiz-adv-x="778" d="M735 102q12 -22 12 -45q0 -13 -4 -26q-10 -37 -45 -54q-22 -12 -45 -12q-12 0 -24 3q-37 9 -56 44l-215 394l-61 -68v-281q0 -39 -26.5 -65.5t-65.5 -26.5t-65.5 26.5t-26.5 65.5v1229q0 39 26.5 65.5t65.5 26.5t65.5 -26.5t26.5 -65.5v-672l289 324q27 29 64 31h6 q35 0 61 -25q31 -26 31 -68q0 -35 -25 -61l-236 -264z" />
<glyph unicode="l" horiz-adv-x="409" d="M236 -23q-59 35 -94.5 94.5t-35.5 127.5v1087q0 39 28 65.5t65 26.5q39 0 65.5 -26.5t26.5 -65.5v-1087q0 -41 37 -62q33 -20 43 -56q3 -12 3 -24q0 -24 -14 -47q-18 -33 -55 -42q-12 -3 -24 -3q-23 0 -45 12z" />
<glyph unicode="m" horiz-adv-x="1212" d="M297 776v-719q0 -39 -27.5 -65.5t-64.5 -26.5q-39 0 -65.5 26.5t-26.5 65.5v811q0 39 26.5 66t65.5 27h614q61 0 114.5 -24t94.5 -63.5t64.5 -94t23.5 -115.5v-607q0 -39 -27.5 -65.5t-64.5 -26.5q-39 0 -65.5 26.5t-26.5 65.5v607q0 47 -33 79.5t-80 32.5h-112v-719 q0 -39 -28 -65.5t-65 -26.5q-39 0 -65.5 26.5t-26.5 65.5v719h-225z" />
<glyph unicode="n" horiz-adv-x="802" d="M205 -35q-39 0 -65.5 26.5t-26.5 65.5v811q0 39 26.5 66t65.5 27h205q61 0 115.5 -24t94 -63.5t63.5 -94t24 -115.5v-607q0 -39 -28 -65.5t-65 -26.5q-39 0 -65.5 26.5t-26.5 65.5v607q0 47 -32.5 79.5t-79.5 32.5h-113v-719q0 -39 -27.5 -65.5t-64.5 -26.5z" />
<glyph unicode="o" horiz-adv-x="770" d="M385 -35q-61 0 -115.5 23.5t-94.5 63.5t-63.5 94.5t-23.5 115.5v410q0 61 23.5 115.5t63.5 94.5t94.5 63.5t115.5 23.5t115.5 -23.5t94.5 -63.5t63.5 -94.5t23.5 -115.5v-410q0 -61 -23.5 -115.5t-63.5 -94.5t-94.5 -63.5t-115.5 -23.5zM385 784q-47 0 -80 -32.5 t-33 -79.5v-410q0 -47 33 -79.5t80 -32.5t80 32.5t33 79.5v410q0 47 -33 79.5t-80 32.5z" />
<glyph unicode="p" horiz-adv-x="794" d="M205 -444q-39 0 -65.5 26.5t-26.5 65.5v1220q0 39 26.5 66t65.5 27h205q61 0 115.5 -24t94 -63.5t63.5 -94t24 -115.5v-394q0 -61 -24 -115.5t-63.5 -94.5t-94 -63.5t-115.5 -23.5h-113v-325q0 -39 -26.5 -65.5t-65.5 -26.5zM522 664q0 47 -32.5 79.5t-79.5 32.5h-113 v-618h113q47 0 79.5 32.5t32.5 79.5v394z" />
<glyph unicode="q" horiz-adv-x="794" d="M385 -27q-61 0 -115.5 23.5t-94.5 63.5t-63.5 94.5t-23.5 115.5v394q0 61 23.5 115.5t63.5 94t94.5 63.5t115.5 24h205q39 0 65.5 -27t26.5 -66v-1220q0 -39 -26.5 -65.5t-65.5 -26.5t-65.5 26.5t-26.5 65.5v325h-113zM385 776q-47 0 -80 -32.5t-33 -79.5v-394 q0 -47 33 -79.5t80 -32.5h113v618h-113z" />
<glyph unicode="r" horiz-adv-x="612" d="M205 -35q-39 0 -65.5 26.5t-26.5 65.5v811q0 39 26.5 66t65.5 27h205q76 0 147 -39q35 -20 44 -57q3 -11 3 -23q0 -24 -12 -47q-20 -33 -56 -43q-12 -3 -24 -4q-24 0 -47 14q-29 14 -55 14h-113v-719q0 -39 -26.5 -65.5t-65.5 -26.5z" />
<glyph unicode="s" horiz-adv-x="673" d="M391 176q33 28 33 70q0 58 -41 86l-193 133q-51 37 -81.5 91t-34.5 118q-1 9 -1 18q0 53 20 104q24 58 71 101q47 41 106 59q38 12 78 12q22 0 45 -3q61 -10 112.5 -45t84.5 -91q12 -22 12 -45q0 -12 -3 -24q-9 -37 -44 -55q-22 -12 -46 -13q-12 0 -24 3q-37 9 -55 42 q-23 39 -65 45q-9 2 -17 2q-31 0 -59 -24q-31 -26 -31 -65q0 -49 39 -79l190 -133q53 -39 85 -94t36 -121q1 -10 1 -19q0 -55 -20 -106q-24 -59 -73 -104q-47 -43 -108 -62q-39 -12 -81 -11q-23 0 -46 3q-66 10 -118 46t-85 94q-12 22 -12 45q0 12 3 24q9 37 42 55 q23 12 47 13q12 0 24 -3q37 -9 56 -42q23 -43 71 -49q9 -2 18 -2q35 0 64 26z" />
<glyph unicode="t" horiz-adv-x="606" d="M115 776q-39 0 -65.5 26.5t-26.5 65.5t26.5 66t65.5 27h71v325q0 39 27 65.5t66 26.5t65.5 -26.5t26.5 -65.5v-325h112q39 0 65.5 -27t26.5 -66t-26.5 -65.5t-65.5 -26.5h-112v-514q0 -47 32.5 -79.5t79.5 -32.5q39 0 65.5 -27t26.5 -66t-26.5 -65.5t-65.5 -26.5 q-61 0 -115.5 23.5t-94.5 63.5t-63.5 94.5t-23.5 115.5v514h-71z" />
<glyph unicode="u" horiz-adv-x="802" d="M393 -27q-61 0 -115.5 23.5t-94.5 63.5t-63.5 94.5t-23.5 115.5v607q0 39 27 65.5t65 26.5q39 0 66 -27t27 -65v-607q0 -47 32.5 -79.5t79.5 -32.5h113v719q0 39 26.5 65.5t65.5 26.5t65.5 -27t26.5 -65v-811q0 -39 -26.5 -66t-65.5 -27h-205z" />
<glyph unicode="v" horiz-adv-x="757" d="M45 850q-4 14 -4 27q0 22 11 44q17 34 54 44q14 4 27 3q22 0 44 -11q34 -17 44 -54l51 -172l51 -168l56 -184l56 184l50 168l52 172q10 37 44 54q21 11 43 11q13 0 27 -3q37 -10 55 -44q11 -21 10 -44q0 -13 -3 -27l-246 -819q-8 -29 -32.5 -47.5t-55.5 -18.5t-54.5 18.5 t-33.5 47.5z" />
<glyph unicode="w" horiz-adv-x="1101" d="M51 854q-4 13 -3 25q0 23 12 45q19 33 57 43q12 3 24 3q24 0 45 -14q33 -20 43 -57l37 -145l36 -149q19 -83 42 -169l43 169l37 149l37 145q8 31 32.5 50.5t55.5 19.5q33 0 57.5 -19.5t32.5 -50.5l37 -145l36 -149q19 -83 42 -169l43 169l37 149l36 145q10 37 42 57 q21 14 45 14q12 0 24 -3q37 -10 57 -43q14 -22 14 -46q0 -12 -3 -24l-205 -819q-8 -31 -33 -50.5t-57 -19.5q-31 0 -55.5 19.5t-32.5 50.5l-37 145l-37 148l-43 168q-23 -86 -42 -168l-36 -148l-37 -145q-8 -31 -32.5 -50.5t-57.5 -19.5q-31 0 -55.5 19.5t-32.5 50.5z" />
<glyph unicode="x" horiz-adv-x="737" d="M96 -23q-35 16 -45 54q-4 13 -3 26q0 23 11 45l205 373l-196 356q-12 22 -12 46q0 13 3 25q10 36 45 54q21 12 44 12q13 0 26 -3q37 -10 55 -43l140 -256l141 256q18 33 54 43q13 4 26 3q23 0 45 -12q35 -18 45 -54q4 -13 4 -25q0 -23 -12 -46l-197 -356l205 -373 q12 -22 12 -45q0 -13 -4 -26q-10 -37 -45 -54q-23 -12 -47 -12q-12 0 -24 3q-36 9 -54 44l-149 271l-148 -271q-18 -35 -55 -44q-12 -3 -24 -3q-24 0 -46 12z" />
<glyph unicode="y" horiz-adv-x="755" d="M102 -444q-39 0 -65.5 26.5t-26.5 65.5t26.5 65.5t65.5 26.5t69 22.5t40 57.5l70 237l-238 793q-4 13 -4 26q0 23 12 45q18 34 55 44q13 4 26 3q22 0 43 -11q34 -17 46 -54l156 -524l158 524q10 37 45 54q22 11 43 11l26 -3q37 -10 56 -44q12 -22 11 -45q0 -13 -3 -26 l-248 -819l-78 -264q-29 -96 -106 -152q-83 -59 -179 -59z" />
<glyph unicode="z" horiz-adv-x="704" d="M55 66q0 25 8 40l136 265l56 110l57 111l52 101l42 83h-259q-39 0 -65.5 26.5t-26.5 65.5t27 66t65 27h410q51 0 78 -46q14 -25 14 -47q0 -18 -10 -43l-135 -264l-58 -110l-56 -111l-51 -100l-42 -82h260q37 0 64.5 -27t27.5 -65q0 -39 -27.5 -66t-64.5 -27h-410 q-53 0 -79 43q-13 25 -13 50z" />
<glyph unicode="{" horiz-adv-x="524" d="M360 836q0 -47 -15 -88t-42 -76q27 -35 42 -76t15 -88v-451q0 -29 18.5 -47t47.5 -18q41 0 69.5 -29t28.5 -69q0 -41 -28.5 -70t-69.5 -29q-55 0 -102.5 20.5t-83 56.5t-56 83t-20.5 102v451q0 29 -18.5 47t-47.5 18q-41 0 -69.5 29t-28.5 70t28.5 69.5t69.5 28.5 q29 0 47.5 18.5t18.5 47.5v409q0 55 20.5 102.5t56 83t83 56t102.5 20.5q41 0 69.5 -28.5t28.5 -69.5t-28.5 -69.5t-69.5 -28.5q-29 0 -47.5 -18.5t-18.5 -47.5v-409z" />
<glyph unicode="|" horiz-adv-x="425" d="M223 1794q41 0 70 -28.5t29 -69.5v-2048q0 -41 -29 -70t-70 -29t-69.5 29t-28.5 70v2048q0 41 28.5 69.5t69.5 28.5z" />
<glyph unicode="}" horiz-adv-x="524" d="M164 508q0 94 57 164q-57 70 -57 164v409q0 29 -19.5 47.5t-46.5 18.5q-41 0 -69.5 28.5t-28.5 69.5t28.5 69.5t69.5 28.5q53 0 101.5 -20.5t84 -56t56 -83t20.5 -102.5v-409q0 -29 18.5 -47.5t47.5 -18.5q41 0 69.5 -28.5t28.5 -69.5t-28.5 -70t-69.5 -29 q-29 0 -47.5 -18t-18.5 -47v-451q0 -55 -20.5 -102t-56 -83t-83.5 -56.5t-102 -20.5q-41 0 -69.5 29t-28.5 70t28.5 69.5t69.5 28.5q27 0 46.5 18.5t19.5 46.5v451z" />
<glyph unicode="~" d="M756 647q31 -23 39 -60.5t-15 -68.5q-31 -47 -79 -78.5t-105 -42.5q-55 -10 -110.5 3.5t-102.5 48.5l-25 18q-33 23 -69 16q-39 -6 -62 -39t-59.5 -41t-69.5 15t-40 59.5t14 69.5q33 47 81 78.5t103 42.5q119 18 215 -52l25 -18q33 -27 69 -16q41 6 60 39q23 33 60.5 41 t70.5 -15z" />
<glyph unicode="&#xa1;" horiz-adv-x="409" d="M205 975q49 0 84 -35t35 -84t-35 -84t-84 -35t-84 35t-35 84t35 84t84 35zM205 647q41 0 69.5 -28.5t28.5 -69.5v-819q0 -41 -28.5 -70t-69.5 -29t-70 29t-29 70v819q0 41 29 69.5t70 28.5z" />
<glyph unicode="&#xa2;" d="M668 186q29 -29 28 -69q0 -41 -28 -70q-49 -49 -115 -72v-81q0 -41 -28.5 -70t-69.5 -29t-70 29t-29 70v81l-18 7q-86 35 -136 111.5t-50 168.5v410q0 92 50 169t136 111l18 6v82q0 41 29 70t70 29t69.5 -29t28.5 -70v-82q66 -23 115 -71q29 -29 28 -70q0 -41 -28 -69 q-29 -29 -70 -29t-70 29q-29 31 -73 30h-2q-23 0 -39 -8q-31 -12 -48.5 -38.5t-17.5 -59.5v-410q0 -33 17.5 -59.5t48.5 -38.5q16 -8 39 -8h2q45 0 73 30q29 29 70 29t70 -29z" />
<glyph unicode="&#xa3;" d="M713 164q41 0 69.5 -29t28.5 -69q0 -41 -28.5 -70t-69.5 -29h-574q-35 0 -62.5 23.5t-33.5 58.5t11.5 65.5t51.5 43.5q45 16 72 54t27 85v276h-66q-41 0 -69.5 29t-28.5 70t28.5 69.5t69.5 28.5h66v270q0 104 62.5 185.5t162.5 107.5q100 27 194.5 -12t145.5 -129 q23 -35 11.5 -74t-46.5 -61q-35 -20 -73.5 -9t-61.5 46q-16 31 -50 45t-69 4t-57.5 -39t-22.5 -64v-270h148q41 0 69.5 -28.5t28.5 -69.5t-28.5 -70t-69.5 -29h-148v-276q0 -74 -26 -133h338z" />
<glyph unicode="&#xa4;" d="M426 328q-88 0 -164 41l-55 -56q-29 -29 -70 -28q-41 0 -69 28q-29 29 -29 68q0 41 29 70l55 57q-41 76 -41 164t41 164l-55 55q-29 29 -29 70t29 69q29 29 69 29q41 0 70 -29l55 -55q76 41 164 41t164 -41l55 55q29 29 70 29t69 -29q29 -29 29 -69q0 -41 -29 -70 l-55 -55q41 -76 41 -164t-41 -164l55 -57q29 -29 29 -70q0 -39 -29 -68t-69 -28q-41 0 -70 28l-55 56q-76 -41 -164 -41zM573 672q0 61 -43 104t-104 43t-104 -43t-43 -104t43 -104.5t104 -43.5t104 43.5t43 104.5z" />
<glyph unicode="&#xa5;" d="M328 246h-140q-41 0 -69.5 28.5t-28.5 69.5t28.5 69.5t69.5 28.5h140v131h-140q-41 0 -69.5 29t-28.5 70t28.5 69.5t69.5 28.5h78l-215 430q-18 37 -5 76t48 57q37 18 76 5t57 -50l68 -135l63 -129l68 -133l67 133l64 129l68 135q18 37 57 50.5t74 -5.5q37 -18 50 -57 t-5 -76l-215 -430h94q41 0 69.5 -28.5t28.5 -69.5t-28.5 -70t-69.5 -29h-156v-131h156q41 0 69.5 -28.5t28.5 -69.5t-28.5 -69.5t-69.5 -28.5h-156v-189q0 -41 -28.5 -69.5t-69.5 -28.5t-69.5 28.5t-28.5 69.5v189z" />
<glyph unicode="&#xa6;" horiz-adv-x="425" d="M213 565q41 0 69.5 -28.5t28.5 -69.5v-819q0 -41 -28.5 -70t-69.5 -29t-69.5 29t-28.5 70v819q0 41 28.5 69.5t69.5 28.5zM213 1794q41 0 69.5 -28.5t28.5 -69.5v-819q0 -41 -28.5 -70t-69.5 -29t-69.5 29t-28.5 70v819q0 41 28.5 69.5t69.5 28.5z" />
<glyph unicode="&#xa7;" d="M614 811q61 -49 90 -122t13 -150q-16 -82 -68 -140q47 -70 47 -151q2 -66 -23.5 -123t-72.5 -98q-102 -86 -233 -64q-61 10 -112.5 46t-84.5 91q-20 35 -9 74t46 62q35 20 73.5 8.5t59.5 -45.5q14 -23 31.5 -31t27.5 -10q12 -4 32 -1t40 19t25.5 35.5t3.5 32.5 q0 10 -5.5 29.5t-25.5 35.5l-229 183q-63 49 -91 121.5t-12 150.5q16 82 68 139q-45 63 -49 152q0 63 25.5 120.5t72.5 98.5q49 41 109.5 58.5t123.5 6.5q61 -10 112.5 -46t84.5 -91q20 -35 9 -73.5t-46 -61.5q-35 -20 -73.5 -9t-59.5 46q-14 23 -31.5 31t-29.5 10 q-10 4 -30 1t-40 -20q-20 -16 -25.5 -35.5t-5.5 -31.5q2 -10 7.5 -29.5t25.5 -36.5zM504 532q14 16 20 41q10 51 -30 84l-144 113q-14 -16 -20 -41q-10 -51 30 -84z" />
<glyph unicode="&#xa8;" horiz-adv-x="1024" d="M563 1184q0 47 33 79.5t80 32.5t79.5 -32.5t32.5 -79.5t-32.5 -80t-79.5 -33t-80 33t-33 80zM348 1296q47 0 80 -32.5t33 -79.5t-33 -80t-80 -33t-79.5 33t-32.5 80t32.5 79.5t79.5 32.5z" />
<glyph unicode="&#xa9;" horiz-adv-x="1470" d="M719 862q-53 -14 -53 -67v-287q0 -25 14 -43.5t39 -24.5q23 -6 45 2.5t33 30.5q20 33 57 43t70 -10q35 -18 45 -55t-11 -72q-43 -76 -122.5 -108.5t-165.5 -10.5q-86 23 -138.5 91.5t-52.5 156.5v287q0 88 52.5 156.5t138.5 90.5q86 23 165.5 -10t122.5 -108 q20 -35 10 -72t-44 -55q-33 -20 -70 -11t-57 43q-10 23 -32.5 31t-45.5 2zM1423 651q0 -139 -51 -263t-149 -222t-223.5 -150.5t-264.5 -52.5q-137 0 -262 52.5t-223 150.5t-149.5 222t-51.5 263t51.5 263t149.5 223q98 98 223 149t262 51q139 0 264 -51t224 -149 q98 -98 149 -222.5t51 -263.5zM735 150q102 0 192.5 37.5t162.5 109.5t109.5 163t37.5 191t-38 191.5t-109 163.5q-72 72 -162 108.5t-193 36.5q-100 0 -190 -37t-162 -108q-72 -72 -109.5 -163t-37.5 -192q0 -100 37.5 -191t109.5 -163t162 -109.5t190 -37.5z" />
<glyph unicode="&#xaa;" horiz-adv-x="624" d="M373 1325q78 -20 125 -82.5t47 -140.5v-430q0 -37 -25.5 -62.5t-62.5 -25.5h-144q-47 0 -89 18.5t-73.5 50t-50 73.5t-18.5 89t18.5 89t50 74t73.5 50.5t89 18.5h56v55q0 18 -11.5 33.5t-29.5 19.5q-41 10 -62 -27q-18 -31 -54 -40t-67 8q-33 18 -42 54t10 69 q39 68 111.5 98.5t148.5 7.5zM369 760v110h-56q-23 0 -39 -16t-16 -39t16.5 -39t38.5 -16h56z" />
<glyph unicode="&#xab;" horiz-adv-x="858" d="M762 836q0 -27 -12 -48l-41 -73l-34 -63l-30 -54q12 -25 32 -59l38 -68q23 -37 43 -80q12 -23 12 -47q0 -57 -49 -86q-37 -20 -76 -8t-59 47l-140 252q-27 47 0 96l132 238q20 35 59 47t76 -8q49 -29 49 -86zM78 549q-27 47 0 96l131 238q20 35 59 47t76 -8 q49 -29 49 -86q0 -27 -12 -48l-41 -73l-34 -63l-30 -54q12 -25 32 -59l38 -68q23 -37 43 -80q12 -23 12 -47q0 -57 -49 -86q-37 -20 -75.5 -8t-59.5 47z" />
<glyph unicode="&#xac;" d="M672 688q41 0 69.5 -28.5t28.5 -69.5v-246q0 -41 -28.5 -69.5t-69.5 -28.5t-70 28.5t-29 69.5v148h-393q-41 0 -69.5 28.5t-28.5 69.5t28.5 69.5t69.5 28.5h492z" />
<glyph unicode="&#xad;" d="M180 492q-41 0 -69.5 28.5t-28.5 69.5t28.5 69.5t69.5 28.5h492q41 0 69.5 -28.5t28.5 -69.5t-28.5 -69.5t-69.5 -28.5h-492z" />
<glyph unicode="&#xae;" horiz-adv-x="1470" d="M1014 786q0 -68 -32 -124t-85 -91l104 -180q18 -35 9 -71.5t-43 -57.5q-35 -18 -72 -8t-55 43l-133 231h-21v-184q0 -39 -26.5 -66.5t-67.5 -27.5q-39 0 -65.5 27.5t-26.5 66.5v606q0 39 26.5 65.5t65.5 26.5h164q53 0 100 -20.5t82 -55t55.5 -81t20.5 -99.5zM686 856 v-141h70q29 0 50 21.5t21 49.5q0 29 -21.5 49.5t-49.5 20.5h-70zM735 1337q139 0 264 -51t224 -149q98 -98 149 -222t51 -264q0 -139 -51 -263t-149 -222t-223.5 -150.5t-264.5 -52.5q-137 0 -262 52.5t-223 150.5t-149.5 222t-51.5 263t51.5 263t149.5 223q98 98 223 149 t262 51zM1090 297q72 72 109.5 163t37.5 191t-38 191.5t-109 163.5q-72 72 -162 108.5t-193 36.5q-100 0 -190 -37t-162 -108q-72 -72 -109.5 -163t-37.5 -192q0 -100 37.5 -191t109.5 -163t162 -109.5t190 -37.5q102 0 192.5 37.5t162.5 109.5z" />
<glyph unicode="&#xaf;" horiz-adv-x="1024" d="M1024 1630q41 0 69.5 -28.5t28.5 -69.5t-28.5 -69.5t-69.5 -28.5h-1024q-41 0 -69.5 28.5t-28.5 69.5t28.5 69.5t69.5 28.5h1024z" />
<glyph unicode="&#xb0;" horiz-adv-x="641" d="M594 1061q0 -57 -21.5 -106.5t-58.5 -86.5t-87 -58.5t-105 -21.5q-57 0 -106.5 21.5t-86.5 58.5t-58.5 86.5t-21.5 106.5q0 55 21.5 105.5t58.5 87t86 58t107 21.5q55 0 105 -21.5t87 -58t58.5 -87t21.5 -105.5zM225 1061q0 -41 28 -68.5t69 -27.5t68.5 27.5t27.5 68.5 t-28 68.5t-68 27.5q-41 0 -69 -27.5t-28 -68.5z" />
<glyph unicode="&#xb1;" d="M672 164q41 0 69.5 -29t28.5 -69q0 -41 -28.5 -70t-69.5 -29h-492q-41 0 -69.5 29t-28.5 70t28.5 69.5t69.5 28.5h492zM672 688q41 0 69.5 -28.5t28.5 -69.5t-28.5 -69.5t-69.5 -28.5h-148v-148q0 -41 -28.5 -69.5t-69.5 -28.5t-69.5 28.5t-28.5 69.5v148h-148 q-41 0 -69.5 28.5t-28.5 69.5t28.5 69.5t69.5 28.5h148v148q0 41 28.5 69.5t69.5 28.5t69.5 -28.5t28.5 -69.5v-148h148z" />
<glyph unicode="&#xb2;" horiz-adv-x="608" d="M492 977l-16 -23l-39 -59l-51 -81l-54 -87h106q37 0 62.5 -25.5t25.5 -62.5t-25.5 -62.5t-62.5 -25.5h-268q-51 0 -78 45q-10 23 -10 45q0 25 14 45l246 387q12 23 6 41q-6 23 -24 35t-43 6t-33 -27q-18 -31 -54 -40t-67 8q-33 18 -42 54t9 69q47 84 144 108 q96 23 178 -27q82 -51 104 -145q23 -96 -28 -178z" />
<glyph unicode="&#xb3;" horiz-adv-x="606" d="M494 985l-10 -13l-9 -14q49 -61 49 -143v-41q0 -78 -47 -140.5t-125 -82.5q-76 -23 -148.5 8t-111.5 98q-18 33 -9 68t42 53q31 18 66.5 9t54.5 -39q20 -37 61 -27q18 4 29.5 19.5t11.5 33.5v41q0 23 -16.5 39t-38.5 16q-37 0 -62.5 26t-25.5 62q0 37 25.5 63t62.5 26 q31 0 47 28q16 27 0 53q-16 29 -47 29t-47 -29q-18 -31 -54 -40t-67 8q-33 18 -42 54t9 69q31 53 85 83.5t116 30.5q61 0 115.5 -30.5t85.5 -83.5t30 -117q1 -64 -30 -117z" />
<glyph unicode="&#xb4;" horiz-adv-x="1024" d="M557 1352q27 25 62.5 22.5t60.5 -28.5q25 -29 23.5 -65t-29.5 -60l-205 -185q-27 -25 -63.5 -22.5t-59.5 28.5q-25 29 -23.5 65t29.5 60z" />
<glyph unicode="&#xb5;" horiz-adv-x="819" d="M614 969q39 0 66 -27t27 -65v-820q0 -39 -27 -65.5t-66 -26.5q-43 0 -69 33q-66 -33 -135 -33q-57 0 -113 23v-340q0 -39 -26.5 -65.5t-65.5 -26.5t-65.5 26.5t-26.5 65.5v1229q0 39 26.5 65.5t65.5 26.5t65.5 -27t26.5 -65v-615q0 -47 32.5 -79.5t80.5 -32.5 q47 0 79.5 32.5t32.5 79.5v615q0 39 26.5 65.5t65.5 26.5z" />
<glyph unicode="&#xb6;" horiz-adv-x="983" d="M889 1329q39 0 66.5 -26.5t27.5 -65.5t-27.5 -66.5t-66.5 -27.5h-49v-1249q0 -39 -28 -67t-67 -28t-65.5 28t-26.5 67v1249h-100v-1249q0 -39 -27.5 -67t-66.5 -28t-65.5 28t-26.5 67v759q-68 2 -128.5 29t-104.5 73t-69.5 107.5t-25.5 128.5q0 70 26.5 131.5t72.5 107.5 t107.5 72.5t131.5 26.5h512zM225 991q0 -59 41 -103t101 -48v303q-59 -4 -100.5 -48.5t-41.5 -103.5z" />
<glyph unicode="&#xb7;" horiz-adv-x="393" d="M197 913q49 0 83.5 -34.5t34.5 -83.5t-34.5 -84t-83.5 -35t-84 34.5t-35 84.5q0 49 35 83.5t84 34.5z" />
<glyph unicode="&#xb8;" horiz-adv-x="1024" d="M418 57q0 41 28.5 70t69.5 29t69.5 -29t28.5 -70v-125q0 -72 -34.5 -132t-96.5 -95q-35 -20 -73.5 -10t-59.5 45q-23 35 -11.5 75t46.5 60q33 20 33 57v125z" />
<glyph unicode="&#xb9;" horiz-adv-x="479" d="M330 1327q25 -10 39 -32.5t14 -49.5v-614q0 -37 -25.5 -62.5t-62.5 -25.5t-62.5 25.5t-25.5 62.5v401l-9 -9l-10 -9l-12 -13q-27 -27 -63 -26q-37 0 -62 26q-27 25 -26 62q0 37 26 63l180 183q20 18 46 23t53 -5z" />
<glyph unicode="&#xba;" horiz-adv-x="624" d="M313 1333q47 0 89 -18.5t74 -50t50.5 -73.5t18.5 -89v-287q0 -47 -18.5 -89t-50.5 -73.5t-74 -50t-89 -18.5t-89 18.5t-73.5 50t-50 73.5t-18.5 89v287q0 47 18.5 89t50 73.5t73.5 50t89 18.5zM313 760q23 0 39.5 16.5t16.5 38.5v287q0 23 -16.5 39t-39.5 16t-39 -16.5 t-16 -38.5v-287q0 -23 16 -39t39 -16z" />
<glyph unicode="&#xbb;" horiz-adv-x="858" d="M457 344q0 25 12 47q23 43 45 80l37 68q18 35 33 59l-32 54l-34 63l-41 73q-12 20 -12 48q0 57 51 86q35 20 75 8t58 -47l131 -238q27 -49 0 -96l-139 -252q-18 -35 -58 -47t-75 8q-51 29 -51 86zM139 258q-51 29 -51 86q0 25 12 47q23 43 45 80l37 68q18 35 33 59 l-32 54l-33 63l-41 73q-12 20 -13 48q0 57 51 86q35 20 75 8t59 -47l131 -238q27 -49 0 -96l-140 -252q-18 -35 -58 -47t-75 8z" />
<glyph unicode="&#xbc;" horiz-adv-x="1224" d="M207 1032l-9 -9l-10 -9l-12 -13q-27 -27 -63 -26q-37 0 -62 26q-27 25 -26 62q0 37 26 63l180 183q20 18 46 23t53 -5q25 -10 39 -32.5t14 -49.5v-614q0 -37 -25.5 -62.5t-62.5 -25.5t-62.5 25.5t-25.5 62.5v401zM1098 309q37 0 62.5 -25.5t25.5 -62.5t-25.5 -62.5 t-62.5 -25.5h-19v-76q0 -37 -25.5 -62.5t-62.5 -25.5t-62.5 25.5t-25.5 62.5v76h-176q-47 0 -74 39q-27 41 -8 82l182 451q14 35 47 49t68 0q27 -10 41 -33t14 -49q0 -18 -6 -33l-47 -117l-43 -106l-43 -107h45v35q0 37 25.5 62.5t62.5 25.5t62.5 -25.5t25.5 -62.5v-35h19z M911 1333q37 -16 50.5 -55t-5.5 -76l-573 -1188q-16 -37 -55 -50t-76 5q-37 16 -50.5 55t5.5 76l573 1188q16 37 55 50t76 -5z" />
<glyph unicode="&#xbd;" horiz-adv-x="1220" d="M207 1032l-9 -9l-10 -9l-12 -13q-27 -27 -63 -26q-37 0 -62 26q-27 25 -26 62q0 37 26 63l180 183q20 18 46 23t53 -5q25 -10 39 -32.5t14 -49.5v-614q0 -37 -25.5 -62.5t-62.5 -25.5t-62.5 25.5t-25.5 62.5v401zM1147 403l-15 -22l-39 -59l-52 -81l-54 -87h107 q37 0 62.5 -26t25.5 -62q0 -37 -26 -63t-62 -26h-269q-51 0 -77 46q-10 23 -11 45q0 25 15 45l245 387q12 23 7 41q-6 23 -25 34q-18 12 -43 7q-25 -6 -33 -27q-18 -31 -54 -40t-67 7q-33 18 -42 54t10 69q47 84 143 109q96 23 178 -27q82 -51 105 -145q22 -97 -29 -179z M911 1333q37 -16 50.5 -55t-5.5 -76l-573 -1188q-16 -37 -55 -50t-76 5q-37 16 -50.5 55t5.5 76l573 1188q16 37 55 50t76 -5z" />
<glyph unicode="&#xbe;" horiz-adv-x="1286" d="M485 774q0 -78 -47 -140.5t-125 -82.5q-76 -23 -148.5 8t-111.5 98q-18 33 -9 68t42 53q31 18 66.5 9t54.5 -39q20 -37 61 -27q18 4 29.5 19.5t11.5 33.5v41q0 23 -16.5 39t-38.5 16q-37 0 -62.5 26t-25.5 62q0 37 25.5 63t62.5 26q31 0 47 28q16 27 0 53q-16 29 -47 29 t-47 -29q-18 -31 -54 -40t-67 8q-33 18 -42 54t9 69q31 53 85.5 83.5t115.5 30.5t115.5 -30.5t85.5 -83.5t30 -117q0 -63 -30 -117l-10 -13l-9 -14q49 -61 49 -143v-41zM1159 309q37 0 62.5 -25.5t25.5 -62.5t-25.5 -62.5t-62.5 -25.5h-18v-76q0 -37 -25.5 -62.5 t-62.5 -25.5t-62.5 25.5t-25.5 62.5v76h-177q-47 0 -73 39q-27 41 -8 82l182 451q14 35 47 49t68 0q27 -10 41 -33t14 -49q0 -18 -6 -33l-47 -117l-43 -106l-43 -107h45v35q0 37 25.5 62.5t62.5 25.5t62.5 -25.5t25.5 -62.5v-35h18zM973 1333q37 -16 50 -55t-5 -76 l-574 -1188q-16 -37 -55 -50t-76 5q-37 16 -50 55t5 76l574 1188q16 37 55 50t76 -5z" />
<glyph unicode="&#xbf;" horiz-adv-x="731" d="M274 856q0 49 35 84t84 35t84 -35t35 -84t-35 -84t-84 -35t-84 35t-35 84zM184 -340q-59 47 -94 111.5t-39 138.5q-6 74 19.5 143.5t79.5 122.5l104 105q41 45 41 104v164q0 41 28.5 69.5t69.5 28.5t70 -28.5t29 -69.5v-164q0 -139 -99 -242l-104 -104q-47 -47 -43 -115 q6 -70 59 -106q51 -41 117 -29q63 12 100 72q20 35 59.5 46t73.5 -9q35 -23 46.5 -62t-9.5 -74q-37 -66 -97 -107.5t-134 -57.5q-72 -14 -145 2t-132 61z" />
<glyph unicode="&#xc0;" horiz-adv-x="884" d="M270 1757q27 29 65 32t66 -24l205 -184q29 -27 32 -64.5t-24 -66.5t-65.5 -32t-67.5 24l-205 184q-29 27 -31 64.5t25 66.5zM864 84q10 -41 -9 -76t-58 -45q-41 -10 -76 9.5t-45 58.5q-8 25 -17 59l-19 69l-24 87h-348q-14 -47 -24.5 -87l-18.5 -69q-8 -35 -16 -59 q-10 -39 -45 -58.5t-76 -9.5q-39 10 -58.5 45t-9.5 76l328 1188q8 33 34 52t60 19q35 0 60.5 -19t34.5 -52zM561 442l-59 220l-60 212l-59 -212l-59 -220h237z" />
<glyph unicode="&#xc1;" horiz-adv-x="884" d="M483 1765q29 27 67 24t64 -32q27 -29 24 -66.5t-32 -64.5l-205 -184q-29 -27 -66.5 -24t-64.5 32t-23.5 66.5t32.5 64.5zM864 84q10 -41 -9 -76t-58 -45q-41 -10 -76 9.5t-45 58.5q-8 25 -17 59l-19 69l-24 87h-348q-14 -47 -24.5 -87l-18.5 -69q-8 -35 -16 -59 q-10 -39 -45 -58.5t-76 -9.5q-39 10 -58.5 45t-9.5 76l328 1188q8 33 34 52t60 19q35 0 60.5 -19t34.5 -52zM561 442l-59 220l-60 212l-59 -212l-59 -220h237z" />
<glyph unicode="&#xc2;" horiz-adv-x="884" d="M389 1724q23 18 53 19q31 0 56 -19l184 -143q29 -23 33 -59.5t-19 -65.5t-58.5 -33t-64.5 19q-23 16 -45 35l-42.5 32.5l-43.5 32.5l-42.5 -32.5t-41.5 -32.5l-45 -35q-29 -23 -65.5 -19t-59.5 33t-17.5 66t34.5 59zM864 84q10 -41 -9 -76t-58 -45q-41 -10 -76 9.5 t-45 58.5q-8 25 -17 59l-19 69l-24 87h-348q-14 -47 -24.5 -87l-18.5 -69q-8 -35 -16 -59q-10 -39 -45 -58.5t-76 -9.5q-39 10 -58.5 45t-9.5 76l328 1188q8 33 34 52t60 19q35 0 60.5 -19t34.5 -52zM561 442l-59 220l-60 212l-59 -212l-59 -220h237z" />
<glyph unicode="&#xc3;" horiz-adv-x="884" d="M184 1618q51 76 142 92q90 16 161 -39l17 -12q8 -6 15 -7t11 -1q4 2 11.5 4t11.5 12q20 31 56 38t67 -13t39 -56.5t-15 -66.5q-23 -37 -59.5 -60.5t-79.5 -31.5q-90 -16 -164 39l-16 12q-12 10 -27 6q-10 0 -22 -14q-20 -31 -56 -38t-67 13q-29 20 -37 56t12 67zM864 84 q10 -41 -9 -76t-58 -45q-41 -10 -76 9.5t-45 58.5q-8 25 -17 59l-19 69l-24 87h-348q-14 -47 -24.5 -87l-18.5 -69q-8 -35 -16 -59q-10 -39 -45 -58.5t-76 -9.5q-39 10 -58.5 45t-9.5 76l328 1188q8 33 34 52t60 19q35 0 60.5 -19t34.5 -52zM561 442l-59 220l-60 212 l-59 -212l-59 -220h237z" />
<glyph unicode="&#xc4;" horiz-adv-x="884" d="M606 1475q-49 0 -84 34.5t-35 83.5t35 84t84 35t84 -35t35 -84t-35 -83.5t-84 -34.5zM279 1712q49 0 83.5 -35t34.5 -84t-34.5 -83.5t-83.5 -34.5t-84 34.5t-35 83.5t35 84t84 35zM864 84q10 -41 -9 -76t-58 -45q-41 -10 -76 9.5t-45 58.5q-8 25 -17 59l-19 69l-24 87 h-348q-14 -47 -24.5 -87l-18.5 -69q-8 -35 -16 -59q-10 -39 -45 -58.5t-76 -9.5q-39 10 -58.5 45t-9.5 76l328 1188q8 33 34 52t60 19q35 0 60.5 -19t34.5 -52zM561 442l-59 220l-60 212l-59 -212l-59 -220h237z" />
<glyph unicode="&#xc5;" horiz-adv-x="884" d="M645 1614q0 -41 -15.5 -78t-43 -64.5t-64.5 -44t-80 -16.5q-41 0 -77.5 16.5t-64.5 44t-43 64.5t-15 78q0 84 58 142.5t142 58.5q86 0 144.5 -58.5t58.5 -142.5zM399 1614q0 -18 13.5 -31.5t29.5 -13.5q18 0 31.5 13t13.5 32q0 18 -13 30.5t-32 12.5q-16 0 -29.5 -12.5 t-13.5 -30.5zM864 84q10 -41 -9 -76t-58 -45q-41 -10 -76 9.5t-45 58.5q-8 25 -17 59l-19 69l-24 87h-348q-14 -47 -24.5 -87l-18.5 -69q-8 -35 -16 -59q-10 -39 -45 -58.5t-76 -9.5q-39 10 -58.5 45t-9.5 76l328 1188q8 33 34 52t60 19q35 0 60.5 -19t34.5 -52zM561 442 l-59 220l-60 212l-59 -212l-59 -220h237z" />
<glyph unicode="&#xc6;" horiz-adv-x="1263" d="M811 1139v-369h270q41 0 70 -28.5t29 -69.5t-29 -70t-70 -29h-270v-409h311q41 0 70 -29t29 -69q0 -41 -29 -70t-70 -29h-409q-41 0 -70 29t-29 70v180h-323l-41 -93l-33 -73l-29 -64q-16 -37 -54 -51t-75 2t-51 54t2 77l529 1180q10 27 35.5 42t54.5 15h493 q41 0 70 -28.5t29 -69.5t-29 -69.5t-70 -28.5h-311zM614 442v527l-110 -248l-125 -279h235z" />
<glyph unicode="&#xc7;" horiz-adv-x="806" d="M328 -27q-111 33 -178.5 124t-67.5 206v696q0 57 18.5 111.5t52 98.5t81 76t102.5 46t112.5 11t108.5 -24.5t94 -58t72 -88.5l20 -34q20 -35 9 -75t-45 -61q-35 -20 -74 -8.5t-60 45.5l-20 35q-25 43 -72 62.5t-94 5.5q-49 -12 -78.5 -52t-29.5 -90v-696q0 -51 29.5 -90 t78.5 -53q47 -12 94 7t72 62l20 35q20 35 59.5 46.5t74.5 -9.5q35 -20 46 -60t-10 -75l-20 -35q-35 -59 -86 -99t-113 -59v-45q0 -72 -35.5 -132t-97.5 -95q-35 -20 -73.5 -10t-59.5 45q-20 35 -9 74.5t46 60.5q14 10 23.5 24.5t9.5 32.5v45z" />
<glyph unicode="&#xc8;" horiz-adv-x="753" d="M303 1139v-369h270q41 0 70 -28.5t29 -69.5t-29 -70t-70 -29h-270v-409h311q41 0 70 -29t29 -69q0 -41 -29 -70t-70 -29h-409q-41 0 -70 29t-29 70v1171q0 41 29 69.5t70 28.5h409q41 0 70 -28.5t29 -69.5t-29 -69.5t-70 -28.5h-311zM244 1626q-29 27 -31 65t25 66 q27 29 64.5 32t66.5 -24l204 -184q29 -27 31 -64.5t-24 -66.5q-25 -29 -64 -32t-67 24z" />
<glyph unicode="&#xc9;" horiz-adv-x="753" d="M303 1139v-369h270q41 0 70 -28.5t29 -69.5t-29 -70t-70 -29h-270v-409h311q41 0 70 -29t29 -69q0 -41 -29 -70t-70 -29h-409q-41 0 -70 29t-29 70v1171q0 41 29 69.5t70 28.5h409q41 0 70 -28.5t29 -69.5t-29 -69.5t-70 -28.5h-311zM449 1765q29 27 67.5 24t63.5 -32 q27 -29 24.5 -66.5t-31.5 -64.5l-204 -184q-29 -27 -67 -24t-64 32q-27 29 -25 66.5t31 64.5z" />
<glyph unicode="&#xca;" horiz-adv-x="753" d="M713 66q0 -41 -29 -70t-70 -29h-409q-41 0 -70 29t-29 70v1171q0 41 29 69.5t70 28.5h409q41 0 70 -28.5t29 -69.5t-29 -69.5t-70 -28.5h-311v-369h270q41 0 70 -28.5t29 -69.5t-29 -70t-70 -29h-270v-409h311q41 0 70 -28.5t29 -69.5zM156 1456q-23 29 -19 66t33 59 l184 143q25 18 56 19q31 0 53 -19l184 -143q29 -23 34 -59.5t-17 -65.5q-23 -29 -60 -33t-65 19q-23 16 -45 35l-42 32l-42 33l-44 -33l-42 -32l-45 -35q-29 -23 -64.5 -19t-58.5 33z" />
<glyph unicode="&#xcb;" horiz-adv-x="753" d="M303 1139v-369h270q41 0 70 -28.5t29 -69.5t-29 -70t-70 -29h-270v-409h311q41 0 70 -29t29 -69q0 -41 -29 -70t-70 -29h-409q-41 0 -70 29t-29 70v1171q0 41 29 69.5t70 28.5h409q41 0 70 -28.5t29 -69.5t-29 -69.5t-70 -28.5h-311zM455 1593q0 49 34.5 84t83.5 35 t84 -35t35 -84t-34.5 -83.5t-84.5 -34.5q-49 0 -83.5 34.5t-34.5 83.5zM127 1593q0 49 35 84t84 35t84 -35t35 -84t-35 -83.5t-84 -34.5t-84 34.5t-35 83.5z" />
<glyph unicode="&#xcc;" horiz-adv-x="409" d="M377 1450q-27 -29 -65 -32t-66 24l-205 184q-29 27 -32 65t24 66q27 29 64.5 32t66.5 -24l205 -184q29 -27 32 -64.5t-24 -66.5zM303 57q0 -41 -28.5 -69.5t-69.5 -28.5t-70 28.5t-29 69.5v1188q0 41 29 69.5t70 28.5t69.5 -28.5t28.5 -69.5v-1188z" />
<glyph unicode="&#xcd;" horiz-adv-x="409" d="M106 1245q0 41 29 69.5t70 28.5t69.5 -28.5t28.5 -69.5v-1188q0 -41 -28.5 -69.5t-69.5 -28.5t-70 28.5t-29 69.5v1188zM33 1450q-27 29 -24 66.5t32 64.5l205 184q29 27 66.5 24t64.5 -32t23.5 -66.5t-31.5 -64.5l-205 -184q-29 -27 -66.5 -24t-64.5 32z" />
<glyph unicode="&#xce;" horiz-adv-x="409" d="M-49 1456q-23 29 -18.5 66t32.5 59l185 143q25 18 55 19q31 0 55 -19l184 -143q29 -23 33 -59.5t-18 -65.5q-23 -29 -60 -33t-65 19q-23 16 -45 35l-42 32l-42 33q-20 -16 -43 -32.5t-41 -32.5l-45 -35q-29 -23 -65.5 -19t-59.5 33zM205 -41q-41 0 -70 28.5t-29 69.5 v1188q0 41 29 69.5t70 28.5t69.5 -28.5t28.5 -69.5v-1188q0 -41 -28.5 -69.5t-69.5 -28.5z" />
<glyph unicode="&#xcf;" horiz-adv-x="409" d="M250 1593q0 49 34.5 84t84.5 35q49 0 83.5 -35t34.5 -84t-34.5 -83.5t-83.5 -34.5t-84 34.5t-35 83.5zM41 1712q49 0 84 -35t35 -84t-35 -83.5t-84 -34.5t-84 34.5t-35 83.5t35 84t84 35zM106 1245q0 41 29 69.5t70 28.5t69.5 -28.5t28.5 -69.5v-1188q0 -41 -28.5 -69.5 t-69.5 -28.5t-70 28.5t-29 69.5v1188z" />
<glyph unicode="&#xd0;" horiz-adv-x="903" d="M477 1335q72 0 134.5 -26.5t109.5 -73.5t73.5 -109.5t26.5 -134.5v-680q0 -72 -26.5 -134t-73.5 -109.5t-109.5 -74t-134.5 -26.5h-246q-41 0 -69.5 29t-28.5 70v512h-65q-39 0 -66 27.5t-27 66.5t27 65.5t66 26.5h65v473q0 41 28.5 69.5t69.5 28.5h246zM625 991 q0 61 -43 104.5t-105 43.5h-147v-375h106q41 0 67.5 -26.5t26.5 -65.5t-26.5 -66.5t-67.5 -27.5h-106v-414h147q61 0 104.5 43t43.5 104v680z" />
<glyph unicode="&#xd1;" horiz-adv-x="983" d="M801 -39q-35 -8 -64.5 7.5t-46.5 45.5l-129 269l-126 258l-132 274v-758q0 -41 -28.5 -69.5t-69.5 -28.5t-70 28.5t-29 69.5v1188q0 35 22 61.5t54 34.5q35 8 66 -7t45 -46l129 -268l125 -258l133 -275v758q0 41 28.5 69.5t69.5 28.5t70 -28.5t29 -69.5v-1188 q0 -35 -20.5 -61.5t-55.5 -34.5zM381 1520q-20 -31 -56 -38t-67 13t-38 56t13 67q51 76 142 92q88 16 162 -39l16 -12q8 -6 15 -7t12 -1q4 2 11 4t11 12q20 31 56 38t67 -13t38 -56.5t-13 -66.5q-23 -37 -60 -60.5t-80 -31.5q-90 -16 -164 39l-16 12q-12 10 -27 6 q-10 0 -22 -14z" />
<glyph unicode="&#xd2;" d="M770 303q0 -72 -26.5 -134.5t-73.5 -109.5t-109.5 -73.5t-134.5 -26.5t-134.5 26.5t-108.5 73.5t-73.5 109.5t-27.5 134.5v696q0 72 27.5 134.5t73.5 109.5t108.5 73.5t134.5 26.5t134.5 -26.5t109.5 -73.5t73.5 -109.5t26.5 -134.5v-696zM426 156q61 0 104 43t43 104 v696q0 61 -43 104.5t-104 43.5q-59 0 -103 -43t-44 -105v-696q0 -61 44 -104t103 -43zM254 1757q27 29 65.5 32t67.5 -24l205 -184q29 -27 31 -64.5t-25 -66.5t-64.5 -32t-66.5 24l-205 184q-29 27 -31 64.5t23 66.5z" />
<glyph unicode="&#xd3;" d="M426 -41q-72 0 -134.5 26.5t-108.5 73.5t-73.5 109.5t-27.5 134.5v696q0 72 27.5 134.5t73.5 109.5t108.5 73.5t134.5 26.5t134.5 -26.5t109.5 -73.5t73.5 -109.5t26.5 -134.5v-696q0 -72 -26.5 -134.5t-73.5 -109.5t-109.5 -73.5t-134.5 -26.5zM426 1147q-59 0 -103 -43 t-44 -105v-696q0 -61 44 -104t103 -43q61 0 104 43t43 104v696q0 61 -43 104.5t-104 43.5zM256 1450q-27 29 -25 66.5t31 64.5l205 184q29 27 66.5 24t64.5 -32t25 -66.5t-31 -64.5l-205 -184q-29 -27 -67.5 -24t-63.5 32z" />
<glyph unicode="&#xd4;" d="M770 303q0 -72 -26.5 -134.5t-73.5 -109.5t-109.5 -73.5t-134.5 -26.5t-134.5 26.5t-108.5 73.5t-73.5 109.5t-27.5 134.5v696q0 72 27.5 134.5t73.5 109.5t108.5 73.5t134.5 26.5t134.5 -26.5t109.5 -73.5t73.5 -109.5t26.5 -134.5v-696zM279 303q0 -61 44 -104t103 -43 q61 0 104 43t43 104v696q0 61 -43 104.5t-104 43.5q-59 0 -103 -43t-44 -105v-696zM666 1581q29 -23 34 -59.5t-18 -65.5t-59.5 -33t-65.5 19q-23 16 -45 35q-20 16 -43 32.5t-43 32.5q-20 -16 -43 -32.5t-41 -32.5l-45 -35q-29 -23 -65.5 -19t-59.5 33t-17.5 66t33.5 59 l185 143q25 18 53 19q31 0 55 -19z" />
<glyph unicode="&#xd5;" d="M770 303q0 -72 -27.5 -134.5t-73.5 -109.5t-109.5 -73.5t-133.5 -26.5q-72 0 -134.5 26.5t-109.5 73.5t-73.5 109.5t-26.5 134.5v696q0 72 26.5 134.5t73.5 109.5t109.5 73.5t134.5 26.5q70 0 133.5 -26.5t109.5 -73.5t73.5 -109.5t27.5 -134.5v-696zM426 156 q59 0 103 43t44 104v696q0 61 -44 104.5t-103 43.5q-61 0 -104 -43t-43 -105v-696q0 -61 43 -104t104 -43zM307 1710q90 16 164 -39l16 -12q8 -6 14.5 -7t10.5 -1q4 2 11 4t14 12q20 31 56 38t66 -13q29 -20 37.5 -56.5t-12.5 -66.5q-51 -76 -141 -92t-162 39l-16 12 q-8 6 -15.5 7t-11.5 -1q-14 0 -23 -14q-23 -31 -57.5 -38t-64.5 13q-31 20 -39.5 56t14.5 67q23 37 59.5 60.5t79.5 31.5z" />
<glyph unicode="&#xd6;" d="M770 303q0 -72 -27.5 -134.5t-73.5 -109.5t-109.5 -73.5t-133.5 -26.5q-72 0 -134.5 26.5t-109.5 73.5t-73.5 109.5t-26.5 134.5v696q0 72 26.5 134.5t73.5 109.5t109.5 73.5t134.5 26.5q70 0 133.5 -26.5t109.5 -73.5t73.5 -109.5t27.5 -134.5v-696zM426 156 q59 0 103 43t44 104v696q0 61 -44 104.5t-103 43.5q-61 0 -104 -43t-43 -105v-696q0 -61 43 -104t104 -43zM471 1593q0 49 35 84t84 35t84 -35t35 -84t-35 -83.5t-84 -34.5t-84 34.5t-35 83.5zM143 1593q0 49 35 84t84 35t84 -35t35 -84t-35 -83.5t-84 -34.5t-84 34.5 t-35 83.5z" />
<glyph unicode="&#xd7;" d="M700 455q29 -29 29 -70t-29 -70t-69 -28q-41 0 -70 28l-135 136l-135 -136q-29 -29 -70 -28q-41 0 -69 28q-29 29 -29 70t29 70l135 135l-135 135q-29 29 -29 70t29 69q29 29 69 29q41 0 70 -29l135 -135l135 135q29 29 70 29t69 -29q29 -29 29 -69q0 -41 -29 -70 l-135 -135z" />
<glyph unicode="&#xd8;" horiz-adv-x="872" d="M850 1409q35 -18 45 -55t-8 -72l-115 -209q4 -18 6 -36.5t2 -37.5v-696q0 -72 -27.5 -134.5t-73.5 -109.5t-109.5 -73.5t-133.5 -26.5q-66 0 -123 21.5t-102 62.5l-61 -113q-18 -35 -55.5 -45t-71.5 9q-35 18 -45.5 55t8.5 71l114 209q-8 33 -8 74v696q0 72 26.5 134.5 t74 109.5t110 73.5t133.5 26.5q66 0 122 -22.5t104 -60.5l61 112q18 35 55 45t72 -8zM436 1147q-61 0 -104 -43t-43 -105v-424l272 502q-20 31 -52 50.5t-73 19.5zM436 156q59 0 103.5 43t44.5 104v424l-275 -502q20 -31 53 -50t74 -19z" />
<glyph unicode="&#xd9;" horiz-adv-x="868" d="M434 -41q-72 0 -134 26.5t-109.5 73.5t-74 109.5t-26.5 134.5v942q0 41 28.5 69.5t69.5 28.5t70 -28.5t29 -69.5v-942q0 -61 43 -104t104 -43t104.5 43t43.5 104v942q0 41 28.5 69.5t69.5 28.5t69.5 -28.5t28.5 -69.5v-942q0 -72 -26.5 -134.5t-73.5 -109.5t-109.5 -73.5 t-134.5 -26.5zM262 1757q27 29 65 32t66 -24l205 -184q29 -27 32 -64.5t-24 -66.5t-65.5 -32t-67.5 24l-205 184q-29 27 -31 64.5t25 66.5z" />
<glyph unicode="&#xda;" horiz-adv-x="868" d="M778 303q0 -72 -26.5 -134.5t-73.5 -109.5t-109.5 -73.5t-134.5 -26.5t-134 26.5t-109.5 73.5t-74 109.5t-26.5 134.5v942q0 41 28.5 69.5t69.5 28.5t70 -28.5t29 -69.5v-942q0 -61 43 -104t104 -43t104.5 43t43.5 104v942q0 41 28.5 69.5t69.5 28.5t69.5 -28.5 t28.5 -69.5v-942zM393 1442q-29 -27 -66.5 -24t-64.5 32t-23.5 66.5t31.5 64.5l205 184q29 27 67 24t64 -32q27 -29 24 -66.5t-32 -64.5z" />
<glyph unicode="&#xdb;" horiz-adv-x="868" d="M434 -41q-72 0 -134 26.5t-108.5 73.5t-74 109.5t-27.5 134.5v942q0 41 28.5 69.5t69.5 28.5t70 -28.5t29 -69.5v-942q0 -61 44 -104t103 -43q61 0 104.5 43t43.5 104v942q0 41 28.5 69.5t69.5 28.5t69.5 -28.5t28.5 -69.5v-942q0 -72 -26.5 -134.5t-73.5 -109.5 t-109.5 -73.5t-134.5 -26.5zM180 1456q-23 29 -17.5 66t34.5 59l184 143q23 18 53 19q31 0 55 -19l185 -143q29 -23 33 -59.5t-19 -65.5t-58.5 -33t-64.5 19q-23 16 -45 35l-42.5 32.5l-43.5 32.5l-42.5 -32.5t-41.5 -32.5l-45 -35q-29 -23 -65.5 -19t-59.5 33z" />
<glyph unicode="&#xdc;" horiz-adv-x="868" d="M434 -41q-72 0 -134 26.5t-108.5 73.5t-74 109.5t-27.5 134.5v942q0 41 28.5 69.5t69.5 28.5t70 -28.5t29 -69.5v-942q0 -61 44 -104t103 -43q61 0 104.5 43t43.5 104v942q0 41 28.5 69.5t69.5 28.5t69.5 -28.5t28.5 -69.5v-942q0 -72 -26.5 -134.5t-73.5 -109.5 t-109.5 -73.5t-134.5 -26.5zM479 1593q0 49 35 84t84 35t84 -35t35 -84t-35 -83.5t-84 -34.5t-84 34.5t-35 83.5zM270 1475q-49 0 -83.5 34.5t-34.5 83.5t34.5 84t83.5 35t84 -35t35 -84t-35 -83.5t-84 -34.5z" />
<glyph unicode="&#xdd;" horiz-adv-x="823" d="M610 1288q18 37 57.5 50.5t75.5 -5.5q35 -18 48.5 -57t-5.5 -76l-276 -551v-592q0 -41 -28.5 -69.5t-69.5 -28.5t-70 28.5t-29 69.5v592l-276 551q-18 37 -5 76t50 57q35 18 74 5t57 -50l68 -135l63 -129l68 -133l67 133l64 129zM373 1442q-29 -27 -68 -24t-65 32 q-25 29 -23 66.5t31 64.5l205 184q29 27 66.5 24t64.5 -32t24.5 -66.5t-30.5 -64.5z" />
<glyph unicode="&#xde;" horiz-adv-x="819" d="M451 1077q70 0 133 -26.5t109 -73.5t74 -109.5t28 -134.5v-123q0 -72 -28 -134t-74 -109.5t-109.5 -74t-132.5 -26.5h-148v-209q0 -41 -28.5 -69.5t-69.5 -28.5t-70 28.5t-29 69.5v1180q0 41 29 69.5t70 28.5t69.5 -28.5t28.5 -69.5v-160h148zM451 463q59 0 103 43 t44 104v123q0 61 -44 104.5t-103 43.5h-148v-418h148z" />
<glyph unicode="&#xdf;" horiz-adv-x="876" d="M788 303q0 -70 -26.5 -131t-72.5 -107.5t-107.5 -73t-130.5 -26.5q-39 0 -66 26.5t-27 65.5t27 66t66 27q63 0 108 45t45 108v328q0 63 -45 108t-108 45q-35 0 -59.5 20.5t-31.5 53.5q-6 33 9.5 61.5t46.5 41.5l37 16q63 27 69 94q4 31 -10 58.5t-41 46.5 q-25 16 -55.5 18t-59.5 -14q-29 -14 -44 -41t-15 -58v-1024q0 -39 -26.5 -65.5t-65.5 -26.5t-65.5 26.5t-26.5 65.5v1024q0 84 42 154t113 108q74 39 156 35t149 -49q63 -41 98.5 -107.5t35.5 -140.5q0 -18 -2 -28q-6 -84 -58 -148q66 -47 103.5 -117.5t37.5 -156.5v-328z " />
<glyph unicode="&#xe0;" horiz-adv-x="720" d="M328 -27q-61 0 -115.5 23.5t-94.5 63.5t-63.5 94.5t-23.5 115.5t23.5 115.5t63.5 94.5t94 63.5t116 23.5h112v109q0 33 -18.5 60.5t-48.5 39.5q-31 12 -64 6t-55 -30q-27 -27 -66 -27q-37 0 -63 27q-29 29 -29 65q0 37 29 66q63 63 149 80.5t168 -17.5 q84 -35 133.5 -107.5t49.5 -162.5v-610q0 -39 -27 -66t-66 -27h-204zM328 383q-47 0 -80 -33t-33 -80t33 -79.5t80 -32.5h112v225h-112zM528 1167q29 -25 30 -60.5t-23 -64.5q-23 -27 -59 -28.5t-64 22.5l-205 185q-27 25 -29 60.5t23 64.5q25 27 60.5 28.5t62.5 -22.5z" />
<glyph unicode="&#xe1;" horiz-adv-x="720" d="M328 -27q-61 0 -115.5 23.5t-94.5 63.5t-63.5 94.5t-23.5 115.5t23.5 115.5t63.5 94.5t94 63.5t116 23.5h112v109q0 33 -18.5 60.5t-48.5 39.5q-31 12 -64 6t-55 -30q-27 -27 -66 -27q-37 0 -63 27q-29 29 -29 65q0 37 29 66q63 63 149 80.5t168 -17.5 q84 -35 133.5 -107.5t49.5 -162.5v-610q0 -39 -27 -66t-66 -27h-204zM328 383q-47 0 -80 -33t-33 -80t33 -79.5t80 -32.5h112v225h-112zM412 1352q29 25 64.5 22.5t60.5 -28.5q23 -29 21.5 -65t-30.5 -60l-204 -185q-27 -25 -63 -22.5t-60 28.5q-25 29 -23 65t29 60z" />
<glyph unicode="&#xe2;" horiz-adv-x="720" d="M440 567v109q0 33 -18.5 60.5t-48.5 39.5q-31 12 -62.5 6t-56.5 -30q-27 -27 -66 -27q-37 0 -63 27q-29 29 -29 65q0 37 29 66q63 63 149 80.5t170 -17.5q82 -35 131.5 -107.5t49.5 -162.5v-610q0 -39 -27 -66t-66 -27h-204q-61 0 -115.5 23.5t-94.5 63.5t-63.5 94.5 t-23.5 115.5t23.5 115.5t63.5 94.5t94 63.5t116 23.5h112zM328 383q-47 0 -80 -33t-33 -80t33 -79.5t80 -32.5h112v225h-112zM604 1167q27 -23 32 -55.5t-18 -60.5q-23 -29 -55.5 -33t-60.5 18l-47 37l-43 34l-43 34l-43 -34l-43 -34l-47 -37q-29 -23 -62 -18.5t-55 33.5 q-23 29 -19 61.5t33 54.5l184 144q23 16 52 16t51 -16z" />
<glyph unicode="&#xe3;" horiz-adv-x="720" d="M328 -27q-61 0 -115.5 23.5t-94.5 63.5t-63.5 94.5t-23.5 115.5t23.5 115.5t63.5 94.5t94 63.5t116 23.5h112v109q0 33 -18.5 60.5t-48.5 39.5q-31 12 -62.5 6t-56.5 -30q-27 -27 -66 -27q-37 0 -63 27q-29 29 -29 65q0 37 29 66q63 63 149 80.5t170 -17.5 q82 -35 131.5 -107.5t49.5 -162.5v-610q0 -39 -27 -66t-66 -27h-204zM328 383q-47 0 -80 -33t-33 -80t33 -79.5t80 -32.5h112v225h-112zM483 1253q20 29 53 36t62 -11q29 -20 36 -54t-11 -63q-49 -72 -138 -88q-86 -16 -157 39l-17 12q-16 10 -30 6q-4 0 -12.5 -3t-14.5 -13 q-20 -29 -53 -36t-62 12q-29 20 -36 54t12 62q49 72 137 88q86 16 158 -39l16 -12q16 -10 31 -6q4 0 12 3t14 13z" />
<glyph unicode="&#xe4;" horiz-adv-x="720" d="M440 567v109q0 33 -18.5 60.5t-48.5 39.5q-31 12 -62.5 6t-56.5 -30q-27 -27 -66 -27q-37 0 -63 27q-29 29 -29 65q0 37 29 66q63 63 149 80.5t170 -17.5q82 -35 131.5 -107.5t49.5 -162.5v-610q0 -39 -27 -66t-66 -27h-204q-61 0 -115.5 23.5t-94.5 63.5t-63.5 94.5 t-23.5 115.5t23.5 115.5t63.5 94.5t94 63.5t116 23.5h112zM328 383q-47 0 -80 -33t-33 -80t33 -79.5t80 -32.5h112v225h-112zM420 1184q0 47 32.5 79.5t79.5 32.5t80 -32.5t33 -79.5t-32.5 -80t-80.5 -33q-47 0 -79.5 33t-32.5 80zM205 1071q-47 0 -80 33t-33 80t33 79.5 t80 32.5t79.5 -32.5t32.5 -79.5t-32.5 -80t-79.5 -33z" />
<glyph unicode="&#xe5;" horiz-adv-x="720" d="M565 1204q0 -82 -57 -139t-139 -57t-139.5 57t-57.5 139t57.5 139.5t139.5 57.5t139 -57.5t57 -139.5zM319 1204q0 -20 14.5 -34.5t35.5 -14.5q20 0 34.5 14.5t14.5 34.5t-14.5 34.5t-34.5 14.5t-35 -14.5t-15 -34.5zM440 567v109q0 33 -18.5 60.5t-48.5 39.5 q-31 12 -62.5 6t-54.5 -30q-29 -27 -68 -27q-37 0 -63 27q-29 29 -29 65q0 37 29 66q63 63 149 80.5t170 -17.5q82 -35 131.5 -107.5t49.5 -162.5v-610q0 -39 -27 -66t-66 -27h-204q-61 0 -115.5 23.5t-94.5 63.5t-63.5 94.5t-23.5 115.5t23.5 115.5t63.5 94.5t94 63.5 t116 23.5h112zM328 383q-47 0 -80 -33t-33 -80t33 -79.5t80 -32.5h112v225h-112z" />
<glyph unicode="&#xe6;" horiz-adv-x="1107" d="M442 559v113q0 35 -19.5 62.5t-49.5 41.5q-33 12 -66 6t-57 -30q-29 -29 -66 -29t-65 29q-27 27 -27 63q0 39 27 66q66 66 152.5 83t170.5 -18q51 -20 93 -59q41 39 93 60.5t111 21.5q61 0 115.5 -23.5t94.5 -63.5t63.5 -94.5t23.5 -115.5v-205q0 -39 -26.5 -65.5 t-65.5 -26.5h-317v-113q0 -35 18.5 -62.5t50.5 -41.5q31 -12 65 -6t58 30q27 29 64 29q39 0 65 -29q29 -29 29 -65q0 -37 -29 -66q-63 -63 -150 -80.5t-173 17.5q-53 20 -90 59q-41 -39 -93 -59q-84 -35 -171 -17.5t-152 80.5q-63 66 -81 153t17 171q35 86 109 135t166 49 h112zM442 375h-112q-35 0 -63.5 -18.5t-41.5 -51.5q-14 -33 -7 -65.5t32 -57.5t57.5 -31t65.5 7q31 14 50 41.5t19 62.5v113zM627 559h225v113q0 47 -33 79.5t-80 32.5t-79.5 -32.5t-32.5 -79.5v-113z" />
<glyph unicode="&#xe7;" horiz-adv-x="677" d="M272 946q84 35 171 17.5t153 -82.5q27 -27 27 -66q0 -37 -27 -63q-29 -29 -66 -29t-65 29q-25 25 -57.5 30.5t-65.5 -6.5q-33 -14 -51.5 -41.5t-18.5 -62.5v-410q0 -35 18.5 -62.5t51.5 -41.5q18 -8 41 -8h2h2q45 0 78 32q29 29 65 29q37 0 66 -29q27 -29 27 -65 q0 -37 -27 -66q-53 -49 -119 -71v-48q0 -70 -33.5 -129t-93.5 -94q-35 -18 -70.5 -9t-56.5 44q-18 33 -9 69.5t44 55.5q35 25 35 63v48q-4 2 -10.5 4t-10.5 4q-86 35 -135 108.5t-49 165.5v410q0 92 49 165.5t135 108.5z" />
<glyph unicode="&#xe8;" horiz-adv-x="753" d="M596 51q-66 -63 -153 -80.5t-171 17.5q-86 35 -135 108.5t-49 165.5v410q0 61 23.5 115.5t63.5 94.5t94.5 63.5t115.5 23.5t115.5 -23.5t94.5 -63.5t63.5 -94.5t23.5 -115.5v-205q0 -39 -26.5 -65.5t-65.5 -26.5h-318v-113q0 -35 19.5 -62.5t50.5 -41.5q33 -12 65.5 -6 t57.5 30q29 29 65 29q37 0 66 -29q27 -29 27 -65q0 -37 -27 -66zM385 784q-47 0 -80 -32.5t-33 -79.5v-113h226v113q0 47 -33 79.5t-80 32.5zM547 1167q27 -25 29 -60.5t-23 -64.5q-25 -27 -60.5 -28.5t-62.5 22.5l-205 185q-29 25 -29.5 60.5t21.5 64.5q25 27 60.5 28.5 t64.5 -22.5z" />
<glyph unicode="&#xe9;" horiz-adv-x="753" d="M272 -12q-86 35 -135 108.5t-49 165.5v410q0 61 23.5 115.5t63.5 94.5t94.5 63.5t115.5 23.5t115.5 -23.5t94.5 -63.5t63.5 -94.5t23.5 -115.5v-205q0 -39 -26.5 -65.5t-65.5 -26.5h-318v-113q0 -35 19.5 -62.5t50.5 -41.5q33 -12 65.5 -6t57.5 30q29 29 65 29 q37 0 66 -29q27 -29 27 -65q0 -37 -27 -66q-66 -63 -153 -80.5t-171 17.5zM385 784q-47 0 -80 -32.5t-33 -79.5v-113h226v113q0 47 -33 79.5t-80 32.5zM430 1352q27 25 62.5 22.5t60.5 -28.5q25 -29 22.5 -65t-28.5 -60l-205 -185q-29 -25 -64.5 -22.5t-60.5 28.5 q-23 29 -21.5 65t29.5 60z" />
<glyph unicode="&#xea;" horiz-adv-x="753" d="M272 375v-113q0 -35 19.5 -62.5t50.5 -41.5q33 -12 65.5 -6t57.5 30q29 29 65 29q37 0 66 -29q27 -29 27 -65q0 -37 -27 -66q-66 -63 -153 -80.5t-171 17.5q-86 35 -135 108.5t-49 165.5v410q0 61 23.5 115.5t63.5 94.5t94.5 63.5t115.5 23.5t115.5 -23.5t94.5 -63.5 t63.5 -94.5t23.5 -115.5v-205q0 -39 -26.5 -65.5t-65.5 -26.5h-318zM385 784q-47 0 -80 -32.5t-33 -79.5v-113h226v113q0 47 -33 79.5t-80 32.5zM252 1036q-27 -23 -60.5 -18.5t-56.5 33.5q-20 29 -16 61.5t31 54.5l184 144q23 16 51 16q29 0 51 -16l185 -144 q29 -23 32.5 -55.5t-18.5 -60.5q-20 -29 -54 -33t-63 18l-47 37l-43 34l-43 34l-43 -34l-43 -34z" />
<glyph unicode="&#xeb;" horiz-adv-x="753" d="M88 672q0 61 23.5 115.5t63.5 94.5t94.5 63.5t115.5 23.5t115.5 -23.5t94.5 -63.5t63.5 -94.5t23.5 -115.5v-205q0 -39 -26.5 -65.5t-65.5 -26.5h-318v-113q0 -35 19.5 -62.5t50.5 -41.5q33 -12 65.5 -6t57.5 30q29 29 65 29q37 0 66 -29q27 -29 27 -65q0 -37 -27 -66 q-66 -63 -153 -80.5t-171 17.5t-134 108.5t-50 165.5v410zM385 784q-47 0 -80 -32.5t-33 -79.5v-113h226v113q0 47 -33 79.5t-80 32.5zM334 1184q0 -47 -33 -80t-80 -33t-79.5 33t-32.5 80t32.5 79.5t79.5 32.5t80 -32.5t33 -79.5zM549 1071q-47 0 -80 33t-33 80t33 79.5 t80 32.5t80 -32.5t33 -79.5t-33 -80t-80 -33z" />
<glyph unicode="&#xec;" horiz-adv-x="409" d="M332 1042q-25 -27 -60.5 -28.5t-62.5 22.5l-205 185q-29 25 -30 60.5t24 64.5q23 27 59.5 28.5t63.5 -22.5l205 -185q29 -25 30 -60.5t-24 -64.5zM113 877q0 39 27.5 65.5t64.5 26.5q39 0 65.5 -27t26.5 -65v-820q0 -39 -26.5 -65.5t-65.5 -26.5q-37 0 -64.5 26.5 t-27.5 65.5v820z" />
<glyph unicode="&#xed;" horiz-adv-x="409" d="M205 -35q-39 0 -65.5 26.5t-26.5 65.5v820q0 39 26.5 65.5t65.5 26.5q37 0 64.5 -27t27.5 -65v-820q0 -39 -27.5 -65.5t-64.5 -26.5zM289 1352q29 25 64.5 22.5t58.5 -28.5q25 -29 23.5 -65t-29.5 -60l-205 -185q-27 -25 -63 -22.5t-60 28.5q-25 29 -24 65t30 60z" />
<glyph unicode="&#xee;" horiz-adv-x="409" d="M-43 1051q-23 29 -18.5 61.5t32.5 54.5l185 144q23 16 49 16q29 0 51 -16l184 -144q29 -23 33 -55.5t-16 -60.5q-23 -29 -56.5 -33t-60.5 18l-47 37l-43 34l-43 34l-44 -34l-44 -34l-47 -37q-27 -23 -61 -18.5t-54 33.5zM299 57q0 -39 -27.5 -65.5t-64.5 -26.5 q-39 0 -65.5 26.5t-26.5 65.5v820q0 39 26.5 65.5t65.5 26.5q37 0 64.5 -27t27.5 -65v-820z" />
<glyph unicode="&#xef;" horiz-adv-x="409" d="M154 1184q0 -47 -33 -80t-80 -33t-80 33t-33 80t33 79.5t80 32.5t80 -32.5t33 -79.5zM369 1071q-47 0 -80 33t-33 80t33 79.5t80 32.5t79.5 -32.5t32.5 -79.5t-32.5 -80t-79.5 -33zM297 57q0 -39 -26.5 -65.5t-65.5 -26.5t-65.5 26.5t-26.5 65.5v820q0 39 26.5 65.5 t65.5 26.5t65.5 -27t26.5 -65v-820z" />
<glyph unicode="&#xf0;" horiz-adv-x="770" d="M88 672q0 61 23.5 115.5t63.5 94.5t94.5 63.5t115.5 23.5q10 0 21.5 -1t21.5 -3l-25 44q-12 22 -28 42l-64 -43q-31 -20 -65.5 -12t-57.5 36q-20 31 -12 66t37 57l39 25q-10 8 -22 15l-21 13q-33 23 -40 60t15 69q20 33 57.5 40t69.5 -15q27 -16 51.5 -35.5t47.5 -40.5 l49 33q31 20 66.5 12t56.5 -37q20 -31 12 -66.5t-37 -56.5l-29 -18q16 -23 29.5 -44.5t26.5 -45.5q47 -90 72.5 -188.5t25.5 -202.5v-410q0 -61 -23.5 -115.5t-63.5 -94.5t-94.5 -63.5t-115.5 -23.5t-115.5 23.5t-94.5 63.5t-63.5 94.5t-23.5 115.5v410zM498 672 q0 47 -33 79.5t-80 32.5t-80 -32.5t-33 -79.5v-410q0 -47 33 -79.5t80 -32.5t80 32.5t33 79.5v410z" />
<glyph unicode="&#xf1;" horiz-adv-x="802" d="M295 1114q-20 -29 -54 -36t-63 12q-29 20 -35 54t13 62q49 72 137 88q86 16 158 -39l16 -12q16 -10 31 -6q4 0 12 3t14 13q18 29 52 36t63 -11q29 -20 36 -54t-11 -63q-49 -72 -138 -88q-86 -16 -159 39l-17 12q-8 6 -16 7.5t-15 -1.5q-14 0 -24 -16zM113 868 q0 39 26.5 66t65.5 27h205q61 0 115.5 -24t94 -63.5t63.5 -94t24 -115.5v-607q0 -39 -27 -65.5t-66 -26.5t-65.5 26.5t-26.5 65.5v607q0 47 -32.5 79.5t-79.5 32.5h-113v-719q0 -39 -26.5 -65.5t-65.5 -26.5t-65.5 26.5t-26.5 65.5v811z" />
<glyph unicode="&#xf2;" horiz-adv-x="770" d="M223 1221q-27 25 -28.5 60.5t22.5 64.5q25 27 60.5 28.5t62.5 -22.5l205 -185q29 -25 29.5 -60.5t-21.5 -64.5q-25 -27 -60.5 -28.5t-64.5 22.5zM88 672q0 61 23.5 115.5t63.5 94.5t94.5 63.5t115.5 23.5t115.5 -23.5t94.5 -63.5t63.5 -94.5t23.5 -115.5v-410 q0 -61 -23.5 -115.5t-63.5 -94.5t-94.5 -63.5t-115.5 -23.5t-115.5 23.5t-94.5 63.5t-63.5 94.5t-23.5 115.5v410zM385 784q-47 0 -80 -32.5t-33 -79.5v-410q0 -47 33 -79.5t80 -32.5t80 32.5t33 79.5v410q0 47 -33 79.5t-80 32.5z" />
<glyph unicode="&#xf3;" horiz-adv-x="770" d="M217 1042q-25 29 -22.5 65t28.5 60l205 185q29 25 64.5 22.5t60.5 -28.5q25 -29 22.5 -65t-28.5 -60l-205 -185q-29 -25 -64.5 -23t-60.5 29zM682 262q0 -61 -23.5 -115.5t-63.5 -94.5t-94.5 -63.5t-115.5 -23.5t-115.5 23.5t-94.5 63.5t-63.5 94.5t-23.5 115.5v410 q0 61 23.5 115.5t63.5 94.5t94.5 63.5t115.5 23.5t115.5 -23.5t94.5 -63.5t63.5 -94.5t23.5 -115.5v-410zM385 150q47 0 80 32.5t33 79.5v410q0 47 -33 79.5t-80 32.5t-80 -32.5t-33 -79.5v-410q0 -47 33 -79.5t80 -32.5z" />
<glyph unicode="&#xf4;" horiz-adv-x="770" d="M252 1036q-29 -23 -61.5 -18.5t-55.5 33.5t-18.5 61.5t33.5 54.5l184 144q23 16 51 16q29 0 51 -16l185 -144q27 -23 31.5 -55.5t-17.5 -60.5q-23 -29 -55.5 -33t-61.5 18l-47 37l-43 34l-43 34l-43 -34l-43 -34zM88 672q0 61 23.5 115.5t63.5 94.5t94.5 63.5t115.5 23.5 t115.5 -23.5t94.5 -63.5t63.5 -94.5t23.5 -115.5v-410q0 -61 -23.5 -115.5t-63.5 -94.5t-94.5 -63.5t-115.5 -23.5t-115.5 23.5t-94.5 63.5t-63.5 94.5t-23.5 115.5v410zM385 784q-47 0 -80 -32.5t-33 -79.5v-410q0 -47 33 -79.5t80 -32.5t80 32.5t33 79.5v410 q0 47 -33 79.5t-80 32.5z" />
<glyph unicode="&#xf5;" horiz-adv-x="770" d="M131 1206q53 72 137 88q86 16 158 -39l16 -12q16 -10 31 -6q16 0 27 16q20 29 54 36t62 -11q29 -20 35 -54t-12 -63q-23 -35 -59.5 -57.5t-77.5 -30.5q-86 -16 -158 39l-16 12q-16 10 -31 6q-4 0 -12.5 -3t-14.5 -13q-18 -29 -52 -36t-62 12q-29 20 -36 53.5t11 62.5z M88 672q0 61 23.5 115.5t63.5 94.5t94.5 63.5t115.5 23.5t115.5 -23.5t94.5 -63.5t63.5 -94.5t23.5 -115.5v-410q0 -61 -23.5 -115.5t-63.5 -94.5t-94.5 -63.5t-115.5 -23.5t-115.5 23.5t-94.5 63.5t-63.5 94.5t-23.5 115.5v410zM385 784q-47 0 -80 -32.5t-33 -79.5v-410 q0 -47 33 -79.5t80 -32.5t80 32.5t33 79.5v410q0 47 -33 79.5t-80 32.5z" />
<glyph unicode="&#xf6;" horiz-adv-x="770" d="M334 1184q0 -47 -33 -80t-80 -33t-79.5 33t-32.5 80t32.5 79.5t79.5 32.5t80 -32.5t33 -79.5zM662 1184q0 -47 -33 -80t-80 -33t-80 33t-33 80t33 79.5t80 32.5t80 -32.5t33 -79.5zM88 672q0 61 23.5 115.5t63.5 94.5t94.5 63.5t115.5 23.5t115.5 -23.5t94.5 -63.5 t63.5 -94.5t23.5 -115.5v-410q0 -61 -23.5 -115.5t-63.5 -94.5t-94.5 -63.5t-115.5 -23.5t-115.5 23.5t-94.5 63.5t-63.5 94.5t-23.5 115.5v410zM385 784q-47 0 -80 -32.5t-33 -79.5v-410q0 -47 33 -79.5t80 -32.5t80 32.5t33 79.5v410q0 47 -33 79.5t-80 32.5z" />
<glyph unicode="&#xf7;" d="M307 324q0 49 35 83.5t84 34.5t84 -34.5t35 -83.5t-35 -84t-84 -35t-84 35t-35 84zM426 737q-49 0 -84 35t-35 84t35 84t84 35t84 -35t35 -84t-35 -84t-84 -35zM770 590q0 -41 -28.5 -69.5t-69.5 -28.5h-492q-41 0 -69.5 28.5t-28.5 69.5t28.5 69.5t69.5 28.5h492 q41 0 69.5 -28.5t28.5 -69.5z" />
<glyph unicode="&#xf8;" horiz-adv-x="790" d="M98 672q0 61 23.5 115.5t63.5 94.5t94.5 63.5t115.5 23.5q90 0 162 -49l49 81q18 33 53 42.5t66 -9.5q33 -18 42 -53t-9 -68l-84 -141q18 -47 18 -100v-410q0 -61 -23.5 -115.5t-63.5 -94.5t-94 -63.5t-116 -23.5q-45 0 -87 13.5t-77 35.5l-47 -84q-18 -31 -53 -40 t-68 10q-31 18 -40 53t10 65l84 144q-18 45 -19 100v410zM395 150q47 0 80 32.5t33 79.5v223l-182 -311q26 -24 69 -24zM395 784q-47 0 -79.5 -32.5t-32.5 -79.5v-223l182 311q-29 24 -70 24z" />
<glyph unicode="&#xf9;" horiz-adv-x="802" d="M555 1167q27 -25 29 -60.5t-23 -64.5q-25 -27 -60.5 -28.5t-62.5 22.5l-205 185q-29 25 -29.5 60.5t23.5 64.5q23 27 59 28.5t64 -22.5zM598 969q39 0 65.5 -27t26.5 -65v-811q0 -39 -26.5 -66t-65.5 -27h-205q-61 0 -115.5 23.5t-94.5 63.5t-63.5 94.5t-23.5 115.5v607 q0 39 27 65.5t65 26.5q39 0 66 -27t27 -65v-607q0 -47 32.5 -79.5t79.5 -32.5h113v719q0 39 26.5 65.5t65.5 26.5z" />
<glyph unicode="&#xfa;" horiz-adv-x="802" d="M350 1036q-29 -25 -64.5 -22.5t-58.5 28.5q-25 29 -23.5 65t29.5 60l205 185q27 25 63 22.5t60 -28.5q25 -29 24 -65t-30 -60zM393 -27q-61 0 -115.5 23.5t-94.5 63.5t-63.5 94.5t-23.5 115.5v607q0 39 28 65.5t64 26.5q39 0 66 -27t27 -65v-607q0 -47 32.5 -79.5 t79.5 -32.5h113v719q0 39 27.5 65.5t64.5 26.5q39 0 65.5 -27t26.5 -65v-811q0 -39 -26.5 -66t-65.5 -27h-205z" />
<glyph unicode="&#xfb;" horiz-adv-x="802" d="M260 1036q-27 -23 -60.5 -18.5t-56.5 33.5q-20 29 -16 61.5t33 54.5l184 144q23 16 49 16q29 0 51 -16l185 -144q29 -23 33 -55.5t-19 -60.5q-20 -29 -54 -33t-61 18l-47 37l-44 34l-44 34l-43 -34l-43 -34zM96 877q0 39 28 65.5t64 26.5q39 0 66 -27t27 -65v-607 q0 -47 32.5 -79.5t79.5 -32.5h113v719q0 39 27.5 65.5t64.5 26.5q39 0 65.5 -27t26.5 -65v-811q0 -39 -26.5 -66t-65.5 -27h-205q-61 0 -115.5 23.5t-94.5 63.5t-63.5 94.5t-23.5 115.5v607z" />
<glyph unicode="&#xfc;" horiz-adv-x="802" d="M229 1071q-47 0 -79.5 33t-32.5 80t32.5 79.5t79.5 32.5t80 -32.5t33 -79.5t-33 -80t-80 -33zM670 1184q0 -47 -33 -80t-80 -33t-80 33t-33 80t33 79.5t80 32.5t80 -32.5t33 -79.5zM96 877q0 39 28 65.5t64 26.5q39 0 66 -27t27 -65v-607q0 -47 32.5 -79.5t79.5 -32.5 h113v719q0 39 27.5 65.5t64.5 26.5q39 0 65.5 -27t26.5 -65v-811q0 -39 -26.5 -66t-65.5 -27h-205q-61 0 -114.5 23.5t-94.5 63.5t-64.5 94.5t-23.5 115.5v607z" />
<glyph unicode="&#xfd;" horiz-adv-x="755" d="M211 1042q-25 29 -24 65t30 60l205 185q29 25 64.5 22.5t58.5 -28.5q25 -29 23.5 -65t-29.5 -60l-205 -185q-27 -25 -62.5 -23t-60.5 29zM102 -260q39 0 69 22.5t40 57.5l72 237l-240 793q-10 37 8.5 70.5t54.5 44.5q35 10 70 -7.5t45 -54.5l158 -524l156 524 q12 37 45.5 54.5t68.5 7.5q37 -10 55.5 -44t8.5 -71l-246 -819l-80 -264q-29 -96 -106 -152q-78 -59 -179 -59q-39 0 -65.5 26.5t-26.5 65.5t26.5 65.5t65.5 26.5z" />
<glyph unicode="&#xfe;" horiz-adv-x="794" d="M297 -352q0 -39 -26.5 -65.5t-65.5 -26.5t-65.5 26.5t-26.5 65.5v1638q0 39 26.5 65.5t65.5 26.5t65.5 -26.5t26.5 -65.5v-317h113q61 0 115.5 -23.5t94 -63.5t63.5 -94.5t24 -115.5v-410q0 -61 -24 -115.5t-63.5 -94.5t-94 -63.5t-115.5 -23.5h-113v-317zM297 784v-634 h113q47 0 79.5 32.5t32.5 79.5v410q0 47 -32.5 79.5t-79.5 32.5h-113z" />
<glyph unicode="&#xff;" horiz-adv-x="755" d="M655 1184q0 -47 -32.5 -80t-79.5 -33t-80 33t-33 80t33 79.5t80 32.5t79.5 -32.5t32.5 -79.5zM215 1071q-47 0 -80 33t-33 80t33 79.5t80 32.5t80 -32.5t33 -79.5t-33 -80t-80 -33zM387 -233q-29 -96 -106 -152q-78 -59 -179 -59q-39 0 -65.5 26.5t-26.5 65.5t26.5 65.5 t65.5 26.5t69 22.5t40 57.5l72 237l-238 793q-12 37 6.5 70.5t54.5 44.5q37 10 71 -7.5t44 -54.5l158 -524l158 524q10 37 43.5 54.5t70.5 7.5q35 -10 53.5 -44t8.5 -71l-246 -819z" />
<glyph unicode="&#x152;" horiz-adv-x="1220" d="M426 -41q-72 0 -134.5 26.5t-109.5 73.5t-73.5 109.5t-26.5 134.5v696q0 72 26.5 134.5t73.5 109.5t109.5 73.5t134.5 26.5q90 0 170 -45q27 37 76 37h409q41 0 70 -28.5t29 -69.5t-29 -69.5t-70 -28.5h-311v-181v-188h270q41 0 70 -28.5t29 -69.5t-29 -70t-70 -29h-270 v-229v-180h311q41 0 70 -29t29 -69q0 -41 -29 -70t-70 -29h-409q-49 0 -76 37q-80 -45 -170 -45zM426 1147q-61 0 -104 -43t-43 -105v-696q0 -61 43 -104t104 -43t104 43t43 104v41v614v41q0 61 -43 104.5t-104 43.5z" />
<glyph unicode="&#x153;" horiz-adv-x="1163" d="M680 -12q-53 20 -90 59q-41 -39 -93.5 -60.5t-111.5 -21.5q-61 0 -115.5 23.5t-94.5 63.5t-63.5 94.5t-23.5 115.5v410q0 61 23.5 115.5t63.5 94.5t94.5 63.5t115.5 23.5q59 0 111.5 -21.5t93.5 -60.5q41 39 93 60.5t112 21.5q61 0 115.5 -23.5t94 -63.5t63.5 -94.5 t24 -115.5v-205q0 -39 -27 -65.5t-66 -26.5h-317v-113q0 -35 18.5 -62.5t51.5 -41.5q31 -12 64.5 -6t57.5 30q27 29 64 29q39 0 66 -29q29 -29 28 -65q0 -37 -28 -66q-63 -63 -150.5 -80.5t-173.5 17.5zM795 784q-47 0 -80 -32.5t-33 -79.5v-113h225v113q0 47 -32.5 79.5 t-79.5 32.5zM385 150q47 0 80 32.5t33 79.5v410q0 47 -33 79.5t-80 32.5t-80 -32.5t-33 -79.5v-410q0 -47 33 -79.5t80 -32.5z" />
<glyph unicode="&#x178;" horiz-adv-x="823" d="M608 1288q18 37 57.5 50.5t75.5 -5.5q37 -18 49.5 -57t-6.5 -76l-276 -551v-592q0 -41 -28.5 -69.5t-69.5 -28.5t-70 28.5t-29 69.5v592l-276 551q-16 37 -4 76t49 57t75 5t56 -50l68 -135l63 -129l68 -133l67 133l64 129zM455 1593q0 49 34.5 84t83.5 35t84 -35t35 -84 t-34.5 -83.5t-84.5 -34.5q-49 0 -83.5 34.5t-34.5 83.5zM365 1593q0 -49 -35 -83.5t-84 -34.5t-84 34.5t-35 83.5t35 84t84 35t84 -35t35 -84z" />
<glyph unicode="&#x2c6;" horiz-adv-x="1024" d="M379 1036q-29 -23 -61.5 -18.5t-55.5 33.5q-20 29 -16 61.5t30 54.5l185 144q23 16 51 16q29 0 51 -16l185 -144q29 -23 32.5 -55.5t-18.5 -60.5q-20 -29 -54 -33t-63 18l-47 37l-43 34l-43 34l-43 -34l-43 -34z" />
<glyph unicode="&#x2dc;" horiz-adv-x="1024" d="M395 1294q86 16 158 -39l16 -12q16 -10 31 -6q16 0 27 16q20 29 54 36t62 -11q29 -20 35 -54t-12 -63q-23 -35 -59.5 -57.5t-77.5 -30.5q-86 -16 -158 39l-16 12q-16 10 -31 6q-4 0 -12.5 -3t-14.5 -13q-18 -29 -52 -36t-62 12q-29 20 -36 54t11 62q53 72 137 88z" />
<glyph unicode="&#x2000;" horiz-adv-x="907" />
<glyph unicode="&#x2001;" horiz-adv-x="1814" />
<glyph unicode="&#x2002;" horiz-adv-x="907" />
<glyph unicode="&#x2003;" horiz-adv-x="1814" />
<glyph unicode="&#x2004;" horiz-adv-x="604" />
<glyph unicode="&#x2005;" horiz-adv-x="452" />
<glyph unicode="&#x2006;" horiz-adv-x="301" />
<glyph unicode="&#x2007;" horiz-adv-x="301" />
<glyph unicode="&#x2008;" horiz-adv-x="225" />
<glyph unicode="&#x2009;" horiz-adv-x="362" />
<glyph unicode="&#x200a;" horiz-adv-x="100" />
<glyph unicode="&#x2010;" d="M180 492q-41 0 -69.5 28.5t-28.5 69.5t28.5 69.5t69.5 28.5h492q41 0 69.5 -28.5t28.5 -69.5t-28.5 -69.5t-69.5 -28.5h-492z" />
<glyph unicode="&#x2011;" d="M180 492q-41 0 -69.5 28.5t-28.5 69.5t28.5 69.5t69.5 28.5h492q41 0 69.5 -28.5t28.5 -69.5t-28.5 -69.5t-69.5 -28.5h-492z" />
<glyph unicode="&#x2012;" d="M180 492q-41 0 -69.5 28.5t-28.5 69.5t28.5 69.5t69.5 28.5h492q41 0 69.5 -28.5t28.5 -69.5t-28.5 -69.5t-69.5 -28.5h-492z" />
<glyph unicode="&#x2013;" horiz-adv-x="1024" d="M1122 590q0 -41 -28.5 -69.5t-69.5 -28.5h-1024q-41 0 -69.5 28.5t-28.5 69.5t28.5 69.5t69.5 28.5h1024q41 0 69.5 -28.5t28.5 -69.5z" />
<glyph unicode="&#x2014;" horiz-adv-x="2048" d="M0 492q-41 0 -69.5 28.5t-28.5 69.5t28.5 69.5t69.5 28.5h2048q41 0 69.5 -28.5t28.5 -69.5t-28.5 -69.5t-69.5 -28.5h-2048z" />
<glyph unicode="&#x2018;" horiz-adv-x="393" d="M322 1049q0 -39 -27 -67t-66 -28h-65q-41 0 -67.5 28t-26.5 67v98q0 59 33.5 110.5t89.5 73.5q35 16 70.5 1t51.5 -52q14 -35 -1 -69.5t-50 -51.5q-8 -4 -8 -12v-10q29 -8 47.5 -32.5t18.5 -55.5z" />
<glyph unicode="&#x2019;" horiz-adv-x="393" d="M127 1126q8 4 8 13v8q-29 10 -47 34.5t-18 55.5q0 39 26.5 65.5t67.5 26.5h65q39 0 66 -26.5t27 -65.5v-98q0 -61 -34 -111.5t-89 -73.5q-35 -16 -71 -0.5t-50 50.5q-16 37 -1 71.5t50 50.5z" />
<glyph unicode="&#x201a;" horiz-adv-x="391" d="M229 190q39 0 66 -26.5t27 -65.5v-98q0 -61 -34 -111.5t-89 -72.5q-35 -16 -71 -1t-50 50q-16 37 -1 71.5t50 51.5q8 4 8 12v8q-29 10 -47 35t-18 55q0 39 26.5 65.5t67.5 26.5h65z" />
<glyph unicode="&#x201c;" horiz-adv-x="759" d="M633 1159q-8 -2 -8 -12v-10q29 -8 47 -33t18 -55q0 -39 -27.5 -67t-66.5 -28h-66q-39 0 -65.5 28t-26.5 67v98q0 59 33 110.5t90 73.5q35 16 70 1t51 -52q16 -35 1 -70t-50 -51zM162 954q-39 0 -65.5 28t-26.5 67v98q0 59 32.5 110.5t90.5 73.5q35 16 69.5 1t50.5 -52 q16 -35 1 -69.5t-50 -51.5q-8 -2 -8 -12v-10q29 -8 47.5 -33t18.5 -55q0 -39 -28 -67t-67 -28h-65z" />
<glyph unicode="&#x201d;" horiz-adv-x="761" d="M129 1126q8 4 8 13v8q-29 10 -47 34.5t-18 55.5q0 39 26.5 65.5t65.5 26.5h65q39 0 67 -26.5t28 -65.5v-98q0 -61 -34 -111.5t-89 -73.5q-37 -16 -72 -0.5t-51 50.5q-16 37 -1 71.5t52 50.5zM498 1126q8 4 8 13v8q-29 10 -47.5 34.5t-18.5 55.5q0 39 27 65.5t65 26.5h66 q39 0 66.5 -26.5t27.5 -65.5v-98q0 -61 -33.5 -111.5t-89.5 -73.5q-37 -16 -71.5 -0.5t-51.5 50.5q-16 37 -0.5 71.5t52.5 50.5z" />
<glyph unicode="&#x201e;" horiz-adv-x="761" d="M322 0q0 -61 -33 -111.5t-90 -72.5q-35 -16 -70 -1t-51 50q-16 37 -1 71.5t50 51.5q8 2 8 12v8q-29 10 -47 35t-18 55q0 39 27.5 65.5t66.5 26.5h65q39 0 66 -26.5t27 -65.5v-98zM496 -12q8 2 8 12v8q-29 10 -47.5 35t-18.5 55q0 39 28 65.5t66 26.5h66q39 0 65.5 -26.5 t26.5 -65.5v-98q0 -61 -32.5 -111.5t-90.5 -72.5q-35 -16 -69.5 -1t-51.5 50q-16 37 -0.5 72t50.5 51z" />
<glyph unicode="&#x2022;" horiz-adv-x="524" d="M262 809q49 0 91 -18.5t73 -50t49.5 -73.5t18.5 -89t-18.5 -89.5t-49.5 -74t-73 -50t-91 -18.5q-47 0 -89 18.5t-73.5 50t-50 73.5t-18.5 90q0 47 18.5 89t50 73.5t73.5 50t89 18.5zM262 522q23 0 39 16.5t16 39.5t-16 39t-39 16t-39 -16.5t-16 -38.5q0 -23 16 -39.5 t39 -16.5z" />
<glyph unicode="&#x2026;" horiz-adv-x="1179" d="M180 197q49 0 84 -35t35 -84t-35 -84t-84 -35t-84 35t-35 84t35 84t84 35zM471 78q0 49 35 84t84 35t84 -35t35 -84t-35 -84t-84 -35t-84 35t-35 84zM881 78q0 49 34.5 84t83.5 35t84 -35t35 -84t-34.5 -84t-84.5 -35q-49 0 -83.5 35t-34.5 84z" />
<glyph unicode="&#x202f;" horiz-adv-x="362" />
<glyph unicode="&#x2039;" horiz-adv-x="489" d="M393 836q0 -27 -12 -48l-41 -73l-34 -63l-30 -54q12 -25 32 -59l38 -68q23 -37 43 -80q12 -23 12 -47q0 -57 -49 -86q-37 -20 -75.5 -8t-59.5 47l-139 252q-27 47 0 96l131 238q20 35 59 47t76 -8q49 -29 49 -86z" />
<glyph unicode="&#x203a;" horiz-adv-x="489" d="M88 344q0 25 12 47q23 43 45 80l37 68q18 35 33 59l-32 54l-33 63l-41 73q-12 20 -13 48q0 57 51 86q35 20 75 8t59 -47l131 -238q27 -49 0 -96l-140 -252q-18 -35 -58 -47t-75 8q-51 29 -51 86z" />
<glyph unicode="&#x205f;" horiz-adv-x="452" />
<glyph unicode="&#x20ac;" d="M473 1141q-47 -12 -77.5 -52t-30.5 -90v-86h229q41 0 69.5 -28.5t28.5 -69.5t-28.5 -69.5t-69.5 -28.5h-229v-131h147q41 0 69.5 -29t28.5 -70t-28.5 -69.5t-69.5 -28.5h-147v-86q0 -51 30.5 -90t77.5 -53q47 -12 94 7t72 62l20 35q20 35 60.5 46.5t75.5 -9.5 q35 -20 45 -60t-11 -75l-20 -35q-29 -51 -72 -88t-94 -58.5t-108.5 -25.5t-112.5 12q-55 14 -102.5 46t-81 76t-52 97.5t-18.5 112.5v86h-66q-41 0 -69.5 28.5t-28.5 69.5t28.5 70t69.5 29h66v131h-66q-41 0 -69.5 28.5t-28.5 69.5t28.5 69.5t69.5 28.5h66v86 q0 57 18.5 111.5t52 98.5t81 76t102.5 46t112.5 11t108.5 -24.5t94 -58t72 -88.5l20 -34q20 -35 10 -75t-44 -61q-35 -20 -75 -8.5t-61 45.5l-20 35q-25 43 -72 62.5t-94 5.5z" />
<glyph unicode="&#x2122;" horiz-adv-x="1372" d="M848 1298l43 -59l41 -58l45 -63l46 63l42 58q23 31 41 59q18 25 47 35t57 0q29 -10 47.5 -33.5t18.5 -54.5v-614q0 -39 -27.5 -66.5t-66.5 -27.5t-65.5 27.5t-26.5 66.5v323q-4 -6 -11 -14l-12 -16q-8 -8 -14 -19q-27 -41 -76 -41q-45 0 -76 41q-6 10 -14 19 q-14 16 -21 30v-323q0 -39 -27.5 -66.5t-66.5 -27.5t-65.5 27.5t-26.5 66.5v614q0 31 17.5 54.5t45.5 33.5q29 10 59 0t46 -35zM322 537q-39 0 -66 27.5t-27 66.5v512h-112q-39 0 -65.5 27.5t-26.5 66.5t26.5 65.5t65.5 26.5h409q39 0 67 -26.5t28 -65.5t-28 -66.5 t-67 -27.5h-110v-512q0 -39 -27.5 -66.5t-66.5 -27.5z" />
<glyph unicode="&#xe000;" horiz-adv-x="970" d="M0 970h970v-970h-970v970z" />
<glyph unicode="&#xfb01;" horiz-adv-x="1015" d="M811 1071q-47 0 -80 33t-33 80t33 79.5t80 32.5t79.5 -32.5t32.5 -79.5t-32.5 -80t-79.5 -33zM903 57q0 -39 -26.5 -65.5t-65.5 -26.5t-65.5 26.5t-26.5 65.5v820q0 39 26.5 65.5t65.5 26.5t65.5 -27t26.5 -65v-820zM115 776q-39 0 -65.5 26.5t-26.5 65.5t26.5 66 t65.5 27h71v120q0 61 23.5 115.5t63.5 94.5t94.5 63.5t115.5 23.5q39 0 65.5 -26.5t26.5 -65.5t-26.5 -65.5t-65.5 -26.5q-47 0 -79.5 -33t-32.5 -80v-120h112q39 0 65.5 -27t26.5 -66t-26.5 -65.5t-65.5 -26.5h-112v-719q0 -39 -27 -65.5t-65 -26.5q-39 0 -66 26.5 t-27 65.5v719h-71z" />
<glyph unicode="&#xfb02;" horiz-adv-x="1015" d="M842 -23q-59 35 -94.5 94.5t-35.5 127.5v1087q0 39 28 65.5t65 26.5q39 0 65.5 -26.5t26.5 -65.5v-1087q0 -41 37 -62q33 -20 43 -56q3 -12 3 -24q0 -24 -14 -47q-18 -33 -55 -42q-12 -3 -24 -3q-23 0 -45 12zM115 776q-39 0 -65.5 26.5t-26.5 65.5t26.5 66t65.5 27h71 v120q0 61 23.5 115.5t63.5 94.5t94.5 63.5t115.5 23.5q39 0 65.5 -26.5t26.5 -65.5t-26.5 -65.5t-65.5 -26.5q-47 0 -79.5 -33t-32.5 -80v-120h112q39 0 65.5 -27t26.5 -66t-26.5 -65.5t-65.5 -26.5h-112v-719q0 -39 -27 -65.5t-65 -26.5q-39 0 -66 26.5t-27 65.5v719h-71z " />
<glyph unicode="&#xfb03;" horiz-adv-x="1622" d="M1417 1071q-47 0 -80 33t-33 80t33 79.5t80 32.5t79.5 -32.5t32.5 -79.5t-32.5 -80t-79.5 -33zM1509 57q0 -39 -26.5 -65.5t-65.5 -26.5t-65.5 26.5t-26.5 65.5v820q0 39 26.5 65.5t65.5 26.5t65.5 -27t26.5 -65v-820zM721 776q-39 0 -65.5 26.5t-26.5 65.5t26.5 66 t65.5 27h71v120q0 61 23.5 115.5t63.5 94.5t94.5 63.5t115.5 23.5q39 0 65.5 -26.5t26.5 -65.5t-26.5 -65.5t-65.5 -26.5q-47 0 -79.5 -33t-32.5 -80v-120h112q39 0 65.5 -27t26.5 -66t-26.5 -65.5t-65.5 -26.5h-112v-719q0 -39 -27 -65.5t-65 -26.5q-39 0 -66 26.5 t-27 65.5v719h-71zM115 776q-39 0 -65.5 26.5t-26.5 65.5t26.5 66t65.5 27h71v120q0 61 23.5 115.5t63.5 94.5t94.5 63.5t115.5 23.5q39 0 65.5 -26.5t26.5 -65.5t-26.5 -65.5t-65.5 -26.5q-47 0 -79.5 -33t-32.5 -80v-120h112q39 0 65.5 -27t26.5 -66t-26.5 -65.5 t-65.5 -26.5h-112v-719q0 -39 -27 -65.5t-65 -26.5q-39 0 -66 26.5t-27 65.5v719h-71z" />
<glyph unicode="&#xfb04;" horiz-adv-x="1622" d="M1448 -23q-59 35 -94.5 94.5t-35.5 127.5v1087q0 39 28 65.5t65 26.5q39 0 65.5 -26.5t26.5 -65.5v-1087q0 -41 37 -62q33 -20 43 -56q3 -12 3 -24q0 -24 -14 -47q-18 -33 -55 -42q-12 -3 -24 -3q-23 0 -45 12zM721 776q-39 0 -65.5 26.5t-26.5 65.5t26.5 66t65.5 27h71 v120q0 61 23.5 115.5t63.5 94.5t94.5 63.5t115.5 23.5q39 0 65.5 -26.5t26.5 -65.5t-26.5 -65.5t-65.5 -26.5q-47 0 -79.5 -33t-32.5 -80v-120h112q39 0 65.5 -27t26.5 -66t-26.5 -65.5t-65.5 -26.5h-112v-719q0 -39 -27 -65.5t-65 -26.5q-39 0 -66 26.5t-27 65.5v719h-71z M115 776q-39 0 -65.5 26.5t-26.5 65.5t26.5 66t65.5 27h71v120q0 61 23.5 115.5t63.5 94.5t94.5 63.5t115.5 23.5q39 0 65.5 -26.5t26.5 -65.5t-26.5 -65.5t-65.5 -26.5q-47 0 -79.5 -33t-32.5 -80v-120h112q39 0 65.5 -27t26.5 -66t-26.5 -65.5t-65.5 -26.5h-112v-719 q0 -39 -27 -65.5t-65 -26.5q-39 0 -66 26.5t-27 65.5v719h-71z" />
</font>
</defs>
</svg>
